Loading...
Error

Скачать Список клиентов / The Client List (сезон 01) (Патрик Р. Норрис) [2012, драма, WEB-DLRip] [720p] [DVO (NewStudio)] торрент без регистрации

 
Статистика раздачи
Размер:  13,59 GB   |    Скачан:  125 раз
Сидов:  1  [  0 KB/s  ]  
 
Автор Сообщение

МихаНЕзатор

[] 

Информация о фильме
Название: Список клиентов
Оригинальное название: The Client List
Год выхода: 2012
Жанр: Драма
Режиссер: Аллан Аркуш, Джон Беринг, Норман Баккли, Тимоти Басфилд, Патрик Р. Норрис, Бетани Руни, Венди Станцлер

В ролях: Дженнифер Лав Хьюитт, Тайлер Шампейн, Лоретта Дивайн, Колин Эглсфилд, Нэтари Наутон, Кэтлин Йорк, Сибилл Шепард, Ребекка Филд, Алисия Лагано, Дези Лайдик, Брайан Хэллисей, Аманда Гист, Лиа Коко, Брайан Кервин, Джон Прескотт, Элизабет Рем, Грег Гранберг, Адам Тейлор, Барт Джонсон, Эшли Баррон, Дэвид Старзик, Мими Роджерс, Марко Дэппер, Сэмюэл Пейдж, Коллин Фой, Мэттью Флорида, Кевин Сэтери, Синди Пикетт, Мэтт Бэттеглия

О фильме:
В центре сюжета Саманта Хортон, обычная домохозяйка из Техаса, которая после развода с мужем устраивается на работу в массажный салон, но вскоре понимает что ей придется предоставлять клиентам не только массаж В конечном счете салонный бизнес достается Саманте.



Страна: США
Студия: Fedora Films
Продолжительность: 10 x ~ 00:41:00
Перевод: Профессиональный, двухголосый - NewStudio
Автор перевода: Ptyza
Озвучивание: Ирина Воронова, Константин Погодаев

Файл
Кодек: h.264
Качество: WEB-DL 720p
Видео: MPEG-4 AVC, 4041 Кбит/с, 1280x720
Звук:
Русский (АС3, 2 ch, 192 Кбит/с)
Английский (АС3, 6 ch, 384 Кбит/с)

Релиз от:
General
Unique ID : 228591613592109877212116933832999343371 (0xABF924B396567485988D609D3016950B)
Complete name : The.Client.List.s01e01.720p.WEBDL.NewStudio.TV.mkv
Format : Matroska
Format version : Version 2
File size : 1.40 GiB
Duration : 42mn 29s
Overall bit rate : 4 714 Kbps
Encoded date : UTC 2012-04-17 18:51:21
Writing application : mkvmerge v5.5.0 ('Healer') built on Apr 6 2012 21:43:24
Writing library : libebml v1.2.3 + libmatroska v1.3.0

Video
ID : 1
Format : AVC
Format/Info : Advanced Video Codec
Format profile : High@L3.1
Format settings, CABAC : No
Format settings, ReFrames : 2 frames
Codec ID : V_MPEG4/ISO/AVC
Duration : 42mn 29s
Bit rate : 4 044 Kbps
Width : 1 280 pixels
Height : 720 pixels
Display aspect ratio : 16:9
Frame rate : 23.976 fps
Color space : YUV
Chroma subsampling : 4:2:0
Bit depth : 8 bits
Scan type : Progressive
Bits/(Pixel*Frame) : 0.183
Stream size : 1.20 GiB (86%)
Language : English
Default : Yes
Forced : No
Color primaries : BT.709-5, BT.1361, IEC 61966-2-4, SMPTE RP177
Transfer characteristics : BT.709-5, BT.1361
Matrix coefficients : BT.709-5, BT.1361, IEC 61966-2-4 709, SMPTE RP177

Audio #1
ID : 2
Format : AC-3
Format/Info : Audio Coding 3
Mode extension : CM (complete main)
Codec ID : A_AC3
Duration : 42mn 29s
Bit rate mode : Constant
Bit rate : 192 Kbps
Channel(s) : 2 channels
Channel positions : Front: L R
Sampling rate : 48.0 KHz
Bit depth : 16 bits
Compression mode : Lossy
Stream size : 58.4 MiB (4%)
Language : Russian
Default : Yes
Forced : No

Audio #2
ID : 3
Format : AC-3
Format/Info : Audio Coding 3
Mode extension : CM (complete main)
Muxing mode : Header stripping
Codec ID : A_AC3
Duration : 42mn 29s
Bit rate mode : Constant
Bit rate : 384 Kbps
Channel(s) : 6 channels
Channel positions : Front: L C R, Side: L R, LFE
Sampling rate : 48.0 KHz
Bit depth : 16 bits
Compression mode : Lossy
Stream size : 117 MiB (8%)
Language : English
Default : No
Forced : No



Скачать Список.клиентов.The.Client.List.(сезон.01).(Патрик.Р.Норрис).[2012.драма.WEB-DLRip].[720p].[DVO.(NewStudio)].torrent без регистрации
Золото ЗОЛОТАЯ РАЗДАЧА! СКАЧАННОЕ НЕ ЗАСЧИТЫВАЕТСЯ! Золото
Дата: Зарегистрирован   [ Тип: внутренний ] Как тут cкачать?
MAGNET ссылка
MAGNET ссылка


Скачать .torrent

36 KB

Статус: проверено DHT
Скачан: торрент - 125 раз, раздача полностью - 85 раз
Размер: 13,59 GB
Оценка:  5 (Голосов: 1)
Поблагодарили: 2
Поделиться ссылкой на эту раздачу с друзьями:
В контактеFacebookОдноклассникиTwitterLivejournalМой МирLiveinternet
 

 
Показать сообщения:    


Вы не можете начинать темы
Вы не можете отвечать на сообщения
Вы не можете редактировать свои сообщения
Вы не можете удалять свои сообщения
Вы не можете голосовать в опросах
Вы не можете прикреплять файлы к сообщениям
Вы можете скачивать файлы