Loading...
Error

Скачать Ходячие мертвецы / The Walking Dead (сезоны 01-03) (Эрнест Р. Дикерсон, Гай Ферленд, Гвинет Хордер-Пэйтон) [2010-2013, мистический триллер, ужасы, зомби, WEB-DLRip-AVC] [MVO (LostFilm)] торрент без регистрации

 
Статистика раздачи
Размер:  20,41 GB   |    Скачан:  651 раз

Полного источника не было: 22 минуты

 
Автор Сообщение

МихаНЕзатор

[] 

Название: Ходячие мертвецы
Оригинальное название: The Walking Dead
Год выпуска: 2010-2013
Жанр: мистический триллер, ужасы, зомби
Режиссер: Эрнест Р. Дикерсон, Гай Ферленд, Гвинет Хордер-Пэйтон
Сценарий: Чарли Адлард, Фрэнк Дарабонт, Роберт Киркман

В ролях: Эндрю Линкольн, Джон Бернтал, Сара Уэйн Кэллис, Лори Холден, Джеффри ДеМанн, Стивен Юн, Чендлер Риггз, Норман Ридус, Айрон Э. Синглтон, Мелисса Сюзанн МакБрайд

Описание: Сериал рассказывает историю жизни семьи шерифа после того, как «зомби» эпидемия апокалипсических масштабов захлестнула земной шар. Шериф Рик Грайм путешествует со своей семьей и небольшой группой выживших в поисках безопасного места для жизни. Но постоянный страх смерти каждый день приносит тяжелые потери, заставляя героев почувствовать глубины человеческой жестокости. Рик пытается спасти свою семью, и открывает для себя, что всепоглощающий страх тех, кто выжил, может быть опаснее бессмысленных мертвецов, бродящих по земле.

Выпущено: США, AMC Studios, American Movie Classics (AMC), Circle of Confusion, Darkwoods Productions, Valhalla Motion Pictures
Продолжительность: 1 x 01:07:00, 34 x ~ 00:45:00
Перевод: Профессиональный (многоголосый, закадровый) - LostFilm
Субтитры: Нет

Качество: WEB-DLRip-AVC
Формат: MPEG-4
Аудио кодек: AC3
Видео: AVC, ~ 1728 Кбит/с, 1024x576, 23,976 кадра/сек
Аудио rus: 2 ch, 384 Кбит/с, 48,0 КГц



Релиз от:
Полное имя: M:3.sezon.Hodyachie.mertvetsi.s03e01.AVC.tahiy.mkv
Формат : Matroska
Версия формата : Version 2
Размер файла : 583 Мбайт
Продолжительность : 43 м.
Общий поток : 1886 Кбит/сек
Название фильма : - = Rip by tahiy = -
Дата кодирования : UTC 2013-02-06 17:21:55
Программа кодирования : mkvmerge v4.0.0 ('The Stars were mine') сборка от Jun 6 2010 16:18:42
Библиотека кодирования : libebml v1.0.0 + libmatroska v1.0.0

Видео
Идентификатор : 1
Формат : AVC
Формат/Информация : Advanced Video Codec
Профиль формата : High@L4.1
Параметр CABAC формата : Да
Параметр ReFrames формата : 8 кадров
Идентификатор кодека : V_MPEG4/ISO/AVC
Продолжительность : 43 м.
Битрейт : 1724 Кбит/сек
Ширина : 1024 пикселя
Высота : 576 пикселей
Соотношение сторон : 16:9
Частота кадров : 23,976 кадра/сек
Цветовое пространство : YUV
Субдискретизация насыщенности : 4:2:0
Битовая глубина : 8 бит
Тип развёртки : Прогрессивная
Бит/(Пиксели*Кадры) : 0.106
Размер потока : 453 Мбайт (78%)
Заголовок : Ходячие мертвецы ( - = Rip by tahiy = - )
Библиотека кодирования : x264 core 120 r2164 da19765
Настройки программы : cabac=1 / ref=8 / deblock=1:-2:-1 / analyse=0x3:0x133 / me=hex / subme=9 / psy=1 / psy_rd=1.00:0.20 / mixed_ref=1 / me_range=16 / chroma_me=1 / trellis=2 / 8x8dct=1 / cqm=0 / deadzone=21,11 / fast_pskip=0 / chroma_qp_offset=-3 / threads=3 / sliced_threads=0 / nr=0 / decimate=1 / interlaced=0 / bluray_compat=0 / constrained_intra=0 / bframes=3 / b_pyramid=2 / b_adapt=1 / b_bias=0 / direct=3 / weightb=1 / open_gop=0 / weightp=2 / keyint=240 / keyint_min=23 / scenecut=40 / intra_refresh=0 / rc_lookahead=40 / rc=2pass / mbtree=1 / bitrate=1500 / ratetol=1.0 / qcomp=0.60 / qpmin=10 / qpmax=51 / qpstep=4 / cplxblur=20.0 / qblur=0.5 / ip_ratio=1.40 / aq=1:1.00
Язык : English
Default : Да
Forced : Да

Аудио
Идентификатор : 2
Формат : AC-3
Формат/Информация : Audio Coding 3
Расширение режима : CM (complete main)
Идентификатор кодека : A_AC3
Продолжительность : 43 м.
Вид битрейта : Постоянный
Битрейт : 384 Кбит/сек
Каналы : 2 канала
Расположение каналов : Front: L R
Частота : 48,0 КГц
Битовая глубина : 16 бит
Метод сжатия : С потерями
Размер потока : 119 Мбайт (20%)
Язык : Russian
Default : Да
Forced : Да
1 сезон
01. Дни, Ушедшие Навсегда / Days Gone Bye
02. Кишки / Guts
03. Скажи Это Лягушкам / Tell It to the Frogs
04. Братаны / Vatos
05. Лесной пожар / Wildfire
06. ТС-19 / TS-19

2 сезон
01. Что ждет впереди / What Lies Ahead
02. Кровопускание / Bloodletting
03. Прибереги последний / Save the Last One
04. Роза Чероки / Cherokee Rose
05. Чупакабра / Chupacabra
06. Тайны / Secrets
07. Почти мертв / Pretty Much Dead Already
08. Небраска / Nebraska
09. Палец на курке / Triggerfinger
10. Еще 18 миль / 18 Miles Out
11. Судья, присяжный и палач / Judge, Jury, Executioner
12. Новые ангелы / Better Angels
13. Около умирающего огня / Beside the Dying Fir

3 сезон
01. Семена / Seed
02. Больной / Sick
03. Пройдемся / Walk with Me
04. Убийца внутри / Killer Within
05. Только скажи / Say the Word
06. Затравленные / Hounded
07. Когда мертвые стучатся / When the Dead Come Knocking
08. Перемотка / Rewind
09. Король самоубийства / The Suicide King
10. Дом / Home
11. Я не Иуда / I Ain't a Judas
12. Очищенный / Clear
13. Стрела на дверном косяке / Arrow on the Doorpost
14. Добыча / Prey
15. Эта горестная жизнь / This Sorrowful Life
16. Добро пожаловать в могилы / «Welcome to the Tombs



Скачать Ходячие.мертвецы.The.Walking.Dead.(сезоны.01-03).(Эрнест.Р.Дикерсон.Гай.Ферленд.Гвинет.Хордер-Пэйтон).[2010-2013.мистический.триллер.ужасы.зомби.WEB-DLRip-AVC].[MVO.(LostFilm)].torrent без регистрации
Золото ЗОЛОТАЯ РАЗДАЧА! СКАЧАННОЕ НЕ ЗАСЧИТЫВАЕТСЯ! Золото
Дата: Зарегистрирован   [ Тип: внутренний ] Как тут cкачать?
MAGNET ссылка
MAGNET ссылка


Скачать .torrent

105 KB

Статус: проверено DHT
Скачан: торрент - 651 раз, раздача полностью - 656 раз
Размер: 20,41 GB
Оценка:  4,8 (Голосов: 5)
Поблагодарили: 17
Поделиться ссылкой на эту раздачу с друзьями:
В контактеFacebookОдноклассникиTwitterLivejournalМой МирLiveinternet
 

 

Санек

[] 

ay ay ay ay ay ay ay
 

var.vip

[] 

ay ay ay ay ay
 
Показать сообщения:    


Вы не можете начинать темы
Вы не можете отвечать на сообщения
Вы не можете редактировать свои сообщения
Вы не можете удалять свои сообщения
Вы не можете голосовать в опросах
Вы не можете прикреплять файлы к сообщениям
Вы можете скачивать файлы