Loading...
Error

Скачать Ганнибал / Hannibal (сезон 01) (Гильермо Наварро, Майкл Раймер, Дэвид Слэйд) [2013, детектив, криминал, драма, WEBDLRip-AVC] 3x[MVO (BaibaKo, AlexFilm, Sony Sci Fi)] торрент без регистрации

 
Статистика раздачи
Размер:  11,55 GB   |    Скачан:  169 раз

Полного источника не было: 20 минут

 
Автор Сообщение

МихаНЕзатор

[] 


Ганнибал / Hannibal


Страна: США, Dino De Laurentiis Productions, Doheny Productions Inc., Gaumont International Television
Жанр: Детектив, криминал, драма
Год выпуска: 2013
Продолжительность: 00:42:57
Перевод:
Профессиональный многоголосый [Baibako]

Профессиональный многоголосый [AlexFilm]

Профессиональный многоголосый [Sony Sci-Fi]

Субтитры: нет
Оригинальная дорожка: нет
Главы: нет

Режиссер: Гильермо Наварро, Майкл Раймер, Дэвид Слэйд
В ролях: Мадс Миккельсен, Хью Дэнси, Каролин Давернас, Лара Жан Чоростецки, Аарон Абрамс, Лоренс Фишберн, Эттьенн Парк, Скотт Томпсон, Торианна Ли, Демор Барнс
Описание: Уилл Грэхэм одаренный профайлер, который вместе с ФБР разыскивает серийного убийцу. Уникальный способ мышления Грэма дает ему удивительную способность глубоко проникаться чувствами другого человека, даже психопата. Он может понять, что ими движет. Но когда ум преследуемого убийцы оказывается слишком сложным, он прибегает к помощи доктора Лектера, одного из ведущих психиатрических умов в стране.
| Рип L | Работа со звуком L

Сайт | Трейлер
Качество видео: WebdlRip-AVC (исх. Hannibal.S01E10.1080p.WEB-DL.DD5.1)
Формат видео: MKV

Видео: AVC / High@L4.1 / 962 x 540, 960х538 / ~1 800 Kbps / 16:9
Аудио 1: 48 kHz, AC3 Dolby Digital, 3/2 (L,C,R,l,r) + LFE ch, ~348 - Baibako
Аудио 2: 48 kHz, AC3 Dolby Digital, 3/2 (L,C,R,l,r) + LFE ch, ~348 - Sony Sci-Fi [отдельно]
Аудио 3: 48 kHz, AC3 Dolby Digital, 3/2 (L,C,R,l,r) + LFE ch, ~348 - AlexFilm [отдельно]

28.06.2013 г. торент обновлён, сезон полностью!

Общее
Уникальный идентификатор : 217678969194096718925415720129765088738 (0xA3C371CAF9FC90A08BB5FB580DB49DE2)
Полное имя : D:25KadrhannibalHannibal.S03E01.WEBDLRip.AVC.AC3.RG.25.Kadr[by.L].mkv
Формат : Matroska
Версия формата : Version 2
Размер файла : 671 Мбайт
Продолжительность : 42 м.
Общий поток : 2185 Кбит/сек
Название фильма : Ганнибал / Hannibal / Сезон 1 / Серия 1 [2013 г.] | Рип L [R.G. 25 Кадр] | Unionpeer.org | Tapochek.net
Дата кодирования : UTC 2013-04-06 06:00:51
Программа кодирования : mkvmerge v3.2.0 ('Beginnings') built on Feb 12 2010 16:46:17
Библиотека кодирования : libebml v0.7.9 + libmatroska v0.8.1

Видео
Идентификатор : 1
Формат : AVC
Формат/Информация : Advanced Video Codec
Профиль формата : High@L4.1
Параметр CABAC формата : Да
Параметр ReFrames формата : 10 кадров
Идентификатор кодека : V_MPEG4/ISO/AVC
Продолжительность : 42 м.
Битрейт : 1800 Кбит/сек
Ширина : 962 пикселя
Высота : 540 пикселей
Соотношение сторон : 16:9
Режим частоты кадров : Постоянный
Частота кадров : 23,976 кадра/сек
Цветовое пространство : YUV
Субдискретизация насыщенности : 4:2:0
Битовая глубина : 8 бит
Тип развёртки : Прогрессивная
Бит/(Пиксели*Кадры) : 0.145
Размер потока : 540 Мбайт (80%)
Библиотека кодирования : x264 core 130 r2273 b3065e6
Настройки программы : cabac=1 / ref=10 / deblock=1:-3:-3 / analyse=0x3:0x133 / me=umh / subme=10 / psy=1 / psy_rd=1.10:0.10 / mixed_ref=1 / me_range=32 / chroma_me=1 / trellis=2 / 8x8dct=1 / cqm=0 / deadzone=21,11 / fast_pskip=0 / chroma_qp_offset=-5 / threads=6 / lookahead_threads=1 / sliced_threads=0 / nr=0 / decimate=1 / interlaced=0 / bluray_compat=0 / constrained_intra=0 / bframes=8 / b_pyramid=2 / b_adapt=2 / b_bias=0 / direct=3 / weightb=1 / open_gop=0 / weightp=2 / keyint=230 / keyint_min=21 / scenecut=40 / intra_refresh=0 / rc_lookahead=60 / rc=2pass / mbtree=0 / bitrate=1800 / ratetol=1.0 / qcomp=0.70 / qpmin=0 / qpmax=69 / qpstep=4 / cplxblur=20.0 / qblur=0.5 / vbv_maxrate=50000 / vbv_bufsize=62500 / nal_hrd=none / ip_ratio=1.35 / pb_ratio=1.25 / aq=2:0.90
Язык : English
Default : Нет
Forced : Нет

Аудио
Идентификатор : 2
Формат : AC-3
Формат/Информация : Audio Coding 3
Расширение режима : CM (complete main)
Параметр Endianness формата : Big
Идентификатор кодека : A_AC3
Продолжительность : 42 м.
Вид битрейта : Постоянный
Битрейт : 384 Кбит/сек
Каналы : 6 каналов
Расположение каналов : Front: L C R, Side: L R, LFE
Частота : 48,0 КГц
Битовая глубина : 16 бит
Метод сжатия : С потерями
Размер потока : 118 Мбайт (18%)
Заголовок : Baibako
Язык : Russian
Default : Да
Forced : Нет

-[NoImage] x264 [info]: frame I:561 Avg QP:15.70 size: 65384 PSNR Mean Y:48.76 U:53.91 V:53.89 Avg:49.81 Global:48.86
-[NoImage] x264 [info]: frame P:15806 Avg QP:18.04 size: 19671 PSNR Mean Y:46.78 U:52.10 V:52.08 Avg:47.91 Global:47.09
-[NoImage] x264 [info]: frame B:45433 Avg QP:20.39 size: 5108 PSNR Mean Y:46.77 U:52.36 V:52.35 Avg:47.91 Global:46.74



Скачать Ганнибал.Hannibal.(сезон.01).(Гильермо.Наварро.Майкл.Раймер.Дэвид.Слэйд).[2013.детектив.криминал.драма.WEBDLRip-AVC].3x[MVO.(BaibaKo.AlexFilm.Sony.Sci.Fi)].torrent без регистрации
Золото ЗОЛОТАЯ РАЗДАЧА! СКАЧАННОЕ НЕ ЗАСЧИТЫВАЕТСЯ! Золото
Дата: Зарегистрирован   [ Тип: внутренний ] Как тут cкачать?
MAGNET ссылка
MAGNET ссылка


Скачать .torrent

62 KB

Статус: проверено DHT
Скачан: торрент - 169 раз, раздача полностью - 42 раз
Размер: 11,55 GB
Оценка:  5 (Голосов: 1)
Поблагодарили: 4
Поделиться ссылкой на эту раздачу с друзьями:
В контактеFacebookОдноклассникиTwitterLivejournalМой МирLiveinternet
 

 

МихаНЕзатор

[] 

Раздача обновлена
 

Joshua

[] 

МихаНЕзатор
Название темы поправил бы...
 
Показать сообщения:    


Вы не можете начинать темы
Вы не можете отвечать на сообщения
Вы не можете редактировать свои сообщения
Вы не можете удалять свои сообщения
Вы не можете голосовать в опросах
Вы не можете прикреплять файлы к сообщениям
Вы можете скачивать файлы