Loading...
Error

Скачать Ганнибал / Hannibal (сезон 01) (Гильермо Наварро, Майкл Раймер, Дэвид Слэйд) [2013, детектив, криминал, драма, WEB-DLRip-AVC, WEBRip-AVC] [MVO (BaibaKo)] торрент без регистрации

 
Статистика раздачи
Размер:  7,48 GB   |    Скачан:  3170 раз
Сидов:  1  [  0 KB/s  ]  
 
Автор Сообщение

МихаНЕзатор

[] 

Название: Ганнибал
Оригинальное название: Hannibal
Год выпуска: 2013
Жанр: детектив, криминал, драма
Режиссер: Гильермо Наварро, Майкл Раймер, Дэвид Слэйд

В ролях: Мадс Миккельсен, Хью Дэнси, Каролин Давернас, Лара Жан Чоростецки, Аарон Абрамс, Лоренс Фишбёрн, Эттьенн Парк, Скотт Томпсон, Торианна Ли, Демор Барнс

Описание: До событий фильмов «Молчание ягнят» и «Красный Дракон» Доктор Ганнибал Лектер был блестящим психиатром, работающим на ФБР. Уилл Грэхэм одаренный профайлер, который вместе с ФБР разыскивает серийного убийцу. Уникальный способ мышления Грэхэма дает ему удивительную способность глубоко проникаться чувствами другого человека, даже психопата. Он может понять, что ими движет. Но когда ум преследуемого убийцы оказывается слишком сложным, он прибегает к помощи доктора Лектера, одного из ведущих психиатрических умов в стране. В то время как Уилл охотится за жестокими преступниками, он и понятия не имеет, что каждый день имеет дело с самым одаренным из них.



Страна: США, Dino De Laurentiis Productions, Doheny Productions Inc., Gaumont International Television
Продолжительность: 00 x ~ 00:42:00
Перевод: Профессиональный (многоголосый, закадровый) - Baibako
Субтитры: нет

Перевод: Вячеслав Лоев, Бюро переводов СМ-Груп (Мария Матвейчук и Анна Старинец)
Озвучка: Александр Фурман, Алексей Кузнецов, Юлия Котурбаш и Татьяна Оболевич

Качество: WEB-DLRip-AVC, WEBRip-AVC
Формат: МР4
Видео: AVC, 1536 Кбит/сек, 720x400
Аудио rus: AAC, 2 канала, 48,0 КГц, 192 Кбит/сек
Аудио eng: AAC, 2 канала, 48,0 КГц, 192 Кбит/сек

Релиз от:

22.06.2013 г. торент обновлён, добавлена 13 серия, сезон полностью!

01. Aperitif
02. Amuse-Bouche
03. Суп
04. Coquilles
05. Entree
06. Sorbet
07. Sorbet
08. Fromage / Сыр
09. Trou Normand / Нормандская дыра (Перерыв на глоток спиртного)
10. Холодные закуски
11. Жаркое
12. Сменное блюдо перед основным
13. Десерт
Общее
Полное имя : D:Dian KehtBaibaKoHannibal.s01.WEB-DLRip.x264.Rus.Eng.BaibaKo.tvHannibal.s01e01.WEB-DLRip.x264.Rus.Eng.BaibaKo.tv.mp4
Формат : MPEG-4
Профиль формата : Base Media
Идентификатор кодека : isom
Размер файла : 595 Мбайт
Продолжительность : 43 м.
Общий поток : 1923 Кбит/сек
Дата кодирования : UTC 2013-04-06 03:16:20
Дата пометки : UTC 2013-04-06 03:16:20

Видео
Идентификатор : 1
Формат : AVC
Формат/Информация : Advanced Video Codec
Профиль формата : Baseline@L3.0
Параметр CABAC формата : Нет
Параметр ReFrames формата : 3 кадра
Идентификатор кодека : avc1
Идентификатор кодека/Информация : Advanced Video Coding
Продолжительность : 43 м.
Вид битрейта : Переменный
Битрейт : 1536 Кбит/сек
Максимальный битрейт : 10000 Кбит/сек
Ширина : 720 пикс.
Высота : 400 пикс.
Соотношение сторон : 16:9
Режим частоты кадров : Постоянный
Частота кадров : 23,976 кадр/сек
Цветовое пространство : YUV
Подвыборка цветности : 4:2:0
Битовая глубина : 8 бит
Тип развёртки : Прогрессивная
Бит/(Пиксели*Кадры) : 0.222
Размер потока : 475 Мбайт (80%)
Заголовок : Hannibal s01e01 HD720p WEB-DL Rus Eng BaibaKo tv
Библиотека кодирования : x264 core 129 r2245 bc13772
Настройки программы : cabac=0 / ref=3 / deblock=1:0:0 / analyse=0x1:0x111 / me=hex / subme=7 / psy=1 / psy_rd=1.00:0.00 / mixed_ref=1 / me_range=16 / chroma_me=1 / trellis=1 / 8x8dct=0 / cqm=0 / deadzone=21,11 / fast_pskip=1 / chroma_qp_offset=-2 / threads=6 / lookahead_threads=1 / sliced_threads=0 / nr=0 / decimate=1 / interlaced=0 / bluray_compat=0 / constrained_intra=0 / bframes=0 / weightp=0 / keyint=240 / keyint_min=24 / scenecut=40 / intra_refresh=0 / rc_lookahead=40 / rc=2pass / mbtree=1 / bitrate=1536 / ratetol=1.0 / qcomp=0.60 / qpmin=0 / qpmax=69 / qpstep=4 / cplxblur=20.0 / qblur=0.5 / vbv_maxrate=10000 / vbv_bufsize=10000 / nal_hrd=vbr / ip_ratio=1.40 / aq=1:1.00
Дата кодирования : UTC 2013-04-06 03:10:00
Дата пометки : UTC 2013-04-06 03:17:02

Аудио #1
Идентификатор : 2
Формат : AAC
Формат/Информация : Advanced Audio Codec
Профиль формата : LC
Идентификатор кодека : 40
Продолжительность : 43 м.
Вид битрейта : Переменный
Битрейт : 192 Кбит/сек
Максимальный битрейт : 198 Кбит/сек
Каналы : 2 канала
Расположение каналов : Front: L R
Частота : 48,0 КГц
Метод сжатия : С потерями
Размер потока : 59,4 Мбайт (10%)
Язык : Russian
Дата кодирования : UTC 2013-04-06 02:28:19
Дата пометки : UTC 2013-04-06 03:17:02

Аудио #2
Идентификатор : 3
Формат : AAC
Формат/Информация : Advanced Audio Codec
Профиль формата : LC
Идентификатор кодека : 40
Продолжительность : 43 м.
Вид битрейта : Переменный
Битрейт : 192 Кбит/сек
Максимальный битрейт : 198 Кбит/сек
Каналы : 2 канала
Расположение каналов : Front: L R
Частота : 48,0 КГц
Метод сжатия : С потерями
Размер потока : 59,4 Мбайт (10%)
Язык : English
Дата кодирования : UTC 2013-04-06 02:37:54
Дата пометки : UTC 2013-04-06 03:17:02



Скачать Ганнибал.Hannibal.(сезон.01).(Гильермо.Наварро.Майкл.Раймер.Дэвид.Слэйд).[2013.детектив.криминал.драма.WEB-DLRip-AVC.WEBRip-AVC].[MVO.(BaibaKo)].torrent без регистрации
Золото ЗОЛОТАЯ РАЗДАЧА! СКАЧАННОЕ НЕ ЗАСЧИТЫВАЕТСЯ! Золото
Дата: Зарегистрирован   [ Тип: внутренний ] Как тут cкачать?
MAGNET ссылка
MAGNET ссылка


Скачать .torrent

39 KB

Статус: проверено DHT
Скачан: торрент - 3170 раз, раздача полностью - 42 раз
Размер: 7,48 GB
Оценка:  4,8 (Голосов: 4)
Поблагодарили: 8
Поделиться ссылкой на эту раздачу с друзьями:
В контактеFacebookОдноклассникиTwitterLivejournalМой МирLiveinternet
 

 

МихаНЕзатор

[] 

Добавлена полная версия четвертого отменённого эпизода.
 

МихаНЕзатор

[] 

Раздача обновлена
 
Показать сообщения:    


Вы не можете начинать темы
Вы не можете отвечать на сообщения
Вы не можете редактировать свои сообщения
Вы не можете удалять свои сообщения
Вы не можете голосовать в опросах
Вы не можете прикреплять файлы к сообщениям
Вы можете скачивать файлы