Loading...
Error

Скачать Туман / The Fog (Джон Карпентер / John Carpenter) [1980, ужасы, триллер, детектив, HDDVDRip] [AVO] (Сербин) торрент без регистрации

 
Статистика раздачи
Размер:  744 MB   |    Скачан:  116 раз
Сидов:  1  [  0 KB/s  ]  
 
Автор Сообщение

leon030982

[] 

Туман / The Fog


Год выпуска: 1980
Страна: США
Жанр: ужасы, триллер, детектив
Продолжительность: 01:29:34
Перевод: Авторский (одноголосый закадровый) [Юрий Сербин]
Cубтитры: нет
Оригинальная аудиодорожка: нет

Режиссер: Джон Карпентер / John Carpenter

В ролях: Эдриенн Барбо, Джейми Ли Кёртис, Джанет Ли, Джон Хаусмен, Том Аткинс, Джеймс Каннинг, Чарльз Сайферс, Нэнси Кайс, Ти Митчелл, Хэл Холбрук

Описание: Маленький рыболовецкий городок одержим духами погибших моряков. Ровно сто лет назад у скал разбилось судно с рыбаками, и вот теперь город окутывает плотный туман, который разрывают буйные призраки прошлого…

Сэмпл: http://multi-up.com/851237
Качество видео: HDDVDRip
Формат видео: AVI
Видео: 720x304 (2.37:1), 23.976 fps, XviD build 56 ~959 kbps avg, 0.18 bit/pixel
Аудио: 48 kHz, AC3 Dolby Digital, 2/0 (L,R) ch, ~192 kbps
Общее
Полное имя : D:\The.Fog.1980.Serbin.avi
Формат : AVI
Формат/Информация : Audio Video Interleave
Размер файла : 744 Мбайт
Продолжительность : 1 ч. 29 м.
Общий поток : 1161 Кбит/сек
Название фильма : The.Fog.1980.Serbin
Программа кодирования : VirtualDubMod 1.5.10.2 (build 2542/release)
Видео
Идентификатор : 0
Формат : MPEG-4 Visual
Профиль формата : Advanced Simple@L5
Параметр BVOP формата : 2
Параметр QPel формата : Нет
Параметр GMC формата : Без точки перехода
Параметр матрицы формата : Выборочная
Идентификатор кодека : XVID
Идентификатор кодека/Подсказка : XviD
Продолжительность : 1 ч. 29 м.
Битрейт : 959 Кбит/сек
Ширина : 720 пикселей
Высота : 304 пикселя
Соотношение сторон : 2,35:1
Частота кадров : 23,976 кадра/сек
Цветовое пространство : YUV
Субдискретизация насыщенности : 4:2:0
Битовая глубина : 8 бит
Тип развёртки : Прогрессивная
Метод сжатия : С потерями
Бит/(Пиксели*Кадры) : 0.183
Размер потока : 614 Мбайт (83%)
Библиотека кодирования : XviD 56
Аудио
Идентификатор : 1
Формат : AC-3
Формат/Информация : Audio Coding 3
Расширение режима : CM (complete main)
Параметр Endianness формата : Big
Идентификатор кодека : 2000
Продолжительность : 1 ч. 29 м.
Вид битрейта : Постоянный
Битрейт : 192 Кбит/сек
Каналы : 2 канала
Расположение каналов : Front: L R
Частота : 48,0 КГц
Битовая глубина : 16 бит
Метод сжатия : С потерями
Размер потока : 123 Мбайт (17%)
Выравнивание : Разделение по промежуткам
Продолжительность промежутка : 42 мс. (1,00 видеокадр)
Время предзагрузки промежутка : 500 мс.



Скачать Туман.The.Fog.(Джон.Карпентер.John.Carpenter).[1980.ужасы.триллер.детектив.HDDVDRip].[AVO].(Сербин).torrent без регистрации
Золото ЗОЛОТАЯ РАЗДАЧА! СКАЧАННОЕ НЕ ЗАСЧИТЫВАЕТСЯ! Золото
Дата: Зарегистрирован   [ Тип: внутренний ] Как тут cкачать?
MAGNET ссылка
MAGNET ссылка


Скачать .torrent

15 KB

Статус: проверено DHT
Скачан: торрент - 116 раз, раздача полностью - 3 раз
Размер: 744 MB
Оценка:  5 (Голосов: 1)
Поблагодарили: 1
Поделиться ссылкой на эту раздачу с друзьями:
В контактеFacebookОдноклассникиTwitterLivejournalМой МирLiveinternet
 

 
Показать сообщения:    


Вы не можете начинать темы
Вы не можете отвечать на сообщения
Вы не можете редактировать свои сообщения
Вы не можете удалять свои сообщения
Вы не можете голосовать в опросах
Вы не можете прикреплять файлы к сообщениям
Вы можете скачивать файлы