Loading...
Error

Скачать Ад на колёсах / Hell on Wheels (2x1-10 из 10)(Дэвид Фон Энкен, Адам Дэвидсон)[2012 г., вестерн, драма, WEB-DLRip] [MVO (LostFilm)] торрент без регистрации

 
Статистика раздачи
Размер:  4,3 GB   |    Скачан:  5604 раза
Сидов:  1  [  0 KB/s  ]  
 
Автор Сообщение

Sidelnik123

[] 



Ад На Колёсах / Hell On Wheels


Год выпуска: 2012
Страна: США, Великобритания, Канада | AMC
Жанр: вестерн, драма
Продолжительность: ~ 42 минуты
Перевод: Профессиональный (многоголосый, закадровый) - LostFilm
Субтитры: Нет
Режиссёры: Дэвид Фон Энкен, Адам Дэвидсон
В ролях: Энсон Маунт, Колм Мини, Коммон, Доминик МакЭллигот, Том Нунен, Эдди Спирс, Кристофер Хейердал, Робин МакЛиви, Каша Кропински, Бен Эслер и др.
Описание: Главный герой — бывший солдат Конфедерации Каллен Боханнан, — решительно намеренный отомстить за изнасилование и смерть своей любимой жены, для чего он собирается найти и убить солдат Союза, совершивших это преступление. В итоге он оказывается в Небраске, на одном из участков строительства трансконтинентальной железной дороги.
Качество: WEB-DLRip
Формат: AVI
Видео кодек: XviD
Аудио кодек: MP3
Видео: 624x352 (16:9), 23.976 fps, ~1200 kbps, ~0.220 bit/pixel
Аудио Rus: 48 kHz, 2 ch, ~128 kbps |LostFilm|
Аудио Eng: 48 kHz, 2 ch, ~128 kbps |Original|
&
Озвучка: Студия "LostFilm"
Рип: LegendKiev
/ Сэмпл / ImDB / Кинопоиск
Вива ла Мехико / Viva La Mexico
Дюран, Небраска / Durant, Nebraska
Бойня / Slaughterhouse
Штрейкбрехеры / Scabs
Дорожная работа / The Railroad Job
Смыть кровью / Purged Away with Blood
Белый дух / The White Spirit
День господень / The Lord's Day
Кровавая луна / Blood Moon
Восход кровавой луны / Blood Moon Rising
[b]Общее
Полное имя : F:\Hell.on.Wheels.s02.LostFilm\Hell.on.Wheels.s02e01.LostFilm.avi
Формат : AVI
Формат/Информация : Audio Video Interleave
Размер файла : 440 Мбайт
Продолжительность : 42 м.
Общий поток : 1434 Кбит/сек
Программа кодирования : VirtualDubMod 1.5.10.2 (build 2540/release)
Библиотека кодирования : VirtualDubMod build 2540/release
Видео
Идентификатор : 0
Формат : MPEG-4 Visual
Профиль формата : Advanced Simple@L5
Параметр BVOP формата : 1
Параметр QPel формата : Нет
Параметр GMC формата : Без точки перехода
Параметр матрицы формата : Выборочная
Идентификатор кодека : XVID
Идентификатор кодека/Подсказка : XviD
Продолжительность : 42 м.
Битрейт : 1164 Кбит/сек
Ширина : 624 пикселя
Высота : 352 пикселя
Соотношение сторон : 16:9
Частота кадров : 23,976 кадра/сек
Цветовое пространство : YUV
Субдискретизация насыщенности : 4:2:0
Битовая глубина : 8 бит
Тип развёртки : Прогрессивная
Метод сжатия : С потерями
Бит/(Пиксели*Кадры) : 0.221
Размер потока : 357 Мбайт (81%)
Библиотека кодирования : XviD 65
Аудио #1
Идентификатор : 1
Формат : MPEG Audio
Версия формата : Version 1
Профиль формата : Layer 3
Режим : Joint stereo
Расширение режима : MS Stereo
Идентификатор кодека : 55
Идентификатор кодека/Подсказка : MP3
Продолжительность : 42 м.
Вид битрейта : Постоянный
Битрейт : 128 Кбит/сек
Каналы : 2 канала
Частота : 48,0 КГц
Метод сжатия : С потерями
Размер потока : 39,3 Мбайт (9%)
Выравнивание : Соединение по промежуткам
Продолжительность промежутка : 42 мс. (1,00 видеокадр)
Время предзагрузки промежутка : 504 мс.
Аудио #2
Идентификатор : 2
Формат : MPEG Audio
Версия формата : Version 1
Профиль формата : Layer 3
Режим : Joint stereo
Расширение режима : MS Stereo
Идентификатор кодека : 55
Идентификатор кодека/Подсказка : MP3
Продолжительность : 42 м.
Вид битрейта : Постоянный
Битрейт : 128 Кбит/сек
Каналы : 2 канала
Частота : 48,0 КГц
Метод сжатия : С потерями
Размер потока : 39,3 Мбайт (9%)
Выравнивание : Соединение по промежуткам
Продолжительность промежутка : 42 мс. (1,00 видеокадр)
Время предзагрузки промежутка : 504 мс.
Внимание! Раздача ведётся путём добавления новых серий; при каждом добавлении создётся новый торрент. Чтобы начать докачку новой серии, пользователям необходимо сделать следующее:Остановить скачивание.
Удалить старый торрент у себя из клиента (старые серии удалять не надо).
Скачать новый торрент и запустить его у себя в клиенте вместо старого, при этом указать клиенту путь в старую папку куда и должно происходить скачивание новых серий.Ваш клиент при этом должен произвести хеширование (проверку) старой папки (если не производит сам - помогите ему сделать это), и будет докачивать только те серии которых у вас ещё нет. Старые серии при этом не удаляются, а продолжают раздаваться!
Eсли вы уже удалили старые серии, то предотвратить повторную закачку старых серий можно, отжав галочку в соответсвующих местах при запуске нового торрента. По возможности, желательно не удалять старые серии как можно дольше чтобы релизёр не столько продолжал раздавать старые серии, а смог сконцентрироваться на новых.
[align=center]



Скачать Ад.на.колёсах.Hell.on.Wheels.(2x1-10.из.10)(Дэвид.Фон.Энкен.Адам.Дэвидсон)[2012.г.вестерн.драма.WEB-DLRip].[MVO.(LostFilm)].torrent без регистрации
Золото ЗОЛОТАЯ РАЗДАЧА! СКАЧАННОЕ НЕ ЗАСЧИТЫВАЕТСЯ! Золото
Дата: Зарегистрирован   [ Тип: внутренний ] Как тут cкачать?
MAGNET ссылка
MAGNET ссылка


Скачать .torrent

12 KB

Статус: проверено DHT
Скачан: торрент - 5604 раз, раздача полностью - 10 раз
Размер: 4,3 GB
Оценка:  5 (Голосов: 1)
Поблагодарили: 5
Поделиться ссылкой на эту раздачу с друзьями:
В контактеFacebookОдноклассникиTwitterLivejournalМой МирLiveinternet
 

 
Показать сообщения:    


Вы не можете начинать темы
Вы не можете отвечать на сообщения
Вы не можете редактировать свои сообщения
Вы не можете удалять свои сообщения
Вы не можете голосовать в опросах
Вы не можете прикреплять файлы к сообщениям
Вы можете скачивать файлы