Loading...
Error

Скачать Кажется, я люблю свою жену / I Think I Love My Wife (Крис Рок) [2007, драма, мелодрама, комедия, DVDRip] [MVO] торрент без регистрации

 
Статистика раздачи
Размер:  745 MB   |    Скачан:  105 раз

Полного источника не было: 29 минут

 
Автор Сообщение

Marsianka

[] 

«Семейная жизнь непредсказуема!»
Год выпуска: 2007
Страна: США, Индия
Жанр: драма, мелодрама, комедия
Продолжительность: 01:29:50
Перевод: Профессиональный (многоголосый, закадровый)
Оригинальная аудиодорожка: нет
Cубтитры: нет

Режиссер: Крис Рок / Chris Rock

В ролях: Крис Рок, Керри Вашингтон, Джина Торрес, Стив Бушеми, Эдвард Херрманн, Уэлкер Уайт, Саманта Айверс, Майкл К. Уильямс, Кассандра Фриман, Стефен А. Смит...

Описание: Главный герой Ричард Купер имеет хорошую работу, жену и двух детей. Но ему скучно, и совместное посещение с женой психолога не помогают. Из прошлого в настоящее возвращается его подруга, которая предоставляет ему шанс переосмыслить многое в своей жизни, или просто изменить своей жене.

Исходник: DVD9 R5
Тип релиза: DVDRip
Контейнер: AVI

Видео: 656x352 (1.85:1), 25.000 fps, XviD ~ 1022 kbps avg, 0.177 bit/pixel
Аудио: 48 kHz, Dolby MP3 2.0 128 kbps, русский

Раздача от:

Общее
Полное имя : Kazhetsya.ya.lublu.svoyu.zhenu.2007.P.DVDRip.745MB_[Youracker]_by_avproh.avi
Формат : AVI
Формат/Информация : Audio Video Interleave
Размер файла : 745 Мбайт
Продолжительность : 1 ч. 29 м.
Общий поток : 1160 Кбит/сек
Программа кодирования : VirtualDubMod 1.5.10.3 | www.virtualdub-fr.org || (build 2550/release)
Библиотека кодирования : VirtualDubMod build 2550/release

Видео
Идентификатор : 0
Формат : MPEG-4 Visual
Профиль формата : Advanced Simple@L5
Параметр BVOP формата : 1
Параметр QPel формата : Нет
Параметр GMC формата : Без точки перехода
Параметр матрицы формата : Выборочная
Идентификатор кодека : XVID
Идентификатор кодека/Подсказка : XviD
Продолжительность : 1 ч. 29 м.
Битрейт : 1022 Кбит/сек
Ширина : 656 пикселей
Высота : 352 пикселя
Соотношение сторон : 1,85:1
Частота кадров : 25,000 кадров/сек
Цветовое пространство : YUV
Субдискретизация насыщенности : 4:2:0
Битовая глубина : 8 бит
Тип развёртки : Прогрессивная
Метод сжатия : С потерями
Бит/(Пиксели*Кадры) : 0.177
Размер потока : 657 Мбайт (88%)
Библиотека кодирования : XviD 65

Аудио
Идентификатор : 1
Формат : MPEG Audio
Версия формата : Version 1
Профиль формата : Layer 3
Идентификатор кодека : 55
Идентификатор кодека/Подсказка : MP3
Продолжительность : 1 ч. 29 м.
Вид битрейта : Постоянный
Битрейт : 128 Кбит/сек
Каналы : 2 канала
Частота : 48,0 КГц
Метод сжатия : С потерями
Размер потока : 82,2 Мбайт (11%)
Выравнивание : Соединение по промежуткам
Продолжительность промежутка : 40 мс. (1,00 видеокадр)
Время предзагрузки промежутка : 504 мс.



Скачать Кажется.я.люблю.свою.жену.I.Think.I.Love.My.Wife.(Крис.Рок).[2007.драма.мелодрама.комедия.DVDRip].[MVO].torrent без регистрации
Золото ЗОЛОТАЯ РАЗДАЧА! СКАЧАННОЕ НЕ ЗАСЧИТЫВАЕТСЯ! Золото
Дата: Зарегистрирован   [ Тип: внутренний ] Как тут cкачать?
MAGNET ссылка
MAGNET ссылка


Скачать .torrent

15 KB

Статус: проверено DHT
Скачан: торрент - 105 раз, раздача полностью - 19 раз
Размер: 745 MB
Оценка:  5 (Голосов: 1)
Поблагодарили: 0
Поделиться ссылкой на эту раздачу с друзьями:
В контактеFacebookОдноклассникиTwitterLivejournalМой МирLiveinternet
 

 
Показать сообщения:    


Вы не можете начинать темы
Вы не можете отвечать на сообщения
Вы не можете редактировать свои сообщения
Вы не можете удалять свои сообщения
Вы не можете голосовать в опросах
Вы не можете прикреплять файлы к сообщениям
Вы можете скачивать файлы