Loading...
Error

Скачать Рикошет / Ricochet (Рассел Малкэй) [1991, криминальный боевик, HDTVRip] [DVO]x2+[AVO]+[Sub]+[Оригинал] торрент без регистрации

 
Статистика раздачи
Размер:  3,05 GB   |    Скачан:  143 раза
Сидов:  1  [  0 KB/s  ]  
 
Автор Сообщение

Marsianka

[] 

Страна: США
Жанр: криминальный боевик
Год выпуска: 1991
Продолжительность: 01:42:20
Перевод: Профессиональный (двухголосый закадровый) R5, Профессиональный (двухголосый закадровый) Екатиренбург АРТ, Авторский (одноголосый закадровый) Гаврилов
Cубтитры: английские
Оригинальная аудиодорожка: английский

Режиссер: Рассел Малкэй / Russell Mulcahy

Сценарий: Стивен Е. де Соуза, Фред Деккер, Менно Мейес
Продюсер: Джеймс Херберт, Барри Джозефсон, Майкл Леви, ...
Оператор: Питер Леви
Композитор: Айс-Ти, Алан Сильвестри
Художник: Джеймс Хинкль, Кристиан Вагенер, Мэрлин Вэнс, ...
Монтаж: Питер Хонесс

В ролях: Дэнзел Вашингтон, Джон Литгоу, Айс-Ти, Кевин Поллак, Линдсэй Вагнер, Виктория Диллард, Мэри Эллен, Трейнор Джош Эванс, Джон Эймос, Джон Котрэн мл.


Патрульный полицейский Ник Стайлз стал героем дня, в одиночку обезвредив опасного преступника Блейка. Прошли годы. Ник занял пост помощника окружного прокурора. А Блейк, сидя в тюремной камере, обклеенной газетными вырезками, запечатлевшими стремительную карьеру его заклятого врага, жаждал мести.
Совершив дерзкий побег, Блейк приступает к исполнению чудовищного плана отмщения. Преступник и страж закона вновь встречаются один на один. Ник должен вспомнить жестокие законы улиц, чтобы победить в смертельном поединке.




Автор: undre19

Качество видео: HDTVRip-AVC
Формат видео: MKV
Видео: AVC, 1024x572, 23.976 fps, ~2920 kBit/s, 16:9
Аудио 1: AC3, 384 kBit/s, 48kHz, 5.1 DD - DVO R5
Аудио 2: AC3, 384 kBit/s, 48kHz, 5.1 DD - AVO Гаврилов
Аудио 3: AC3, 192 kBit/s, 48kHz, 2.0 DD -DVO Екатиренбург АРТ [отдельно]
Аудио 4: AC3, 384 kBit/s, 48kHz, 5.1 DD - English
Формат субтитров: softsub (SRT)
Дэнзел Вашингтон занимался физподготовкой по три часа в день шесть дней в неделю в течение четырех месяцев, чтобы в сценах, где артист обнажен по пояс, было видно, что он в отличной спортивной форме.
Джон Литгоу на протяжении всего фильма практически не моргает.
Мэри Эллен Трэйнор сыграла репортершу Гэйл Уолленс, роль которой она до этого исполнила в «Крепком орешке» (1988).
x264vfw [info]: using SAR=1/1
x264vfw [info]: using cpu capabilities: MMX2 SSE2Fast SSSE3 FastShuffle SSE4.1 Cache64
x264vfw [info]: profile High, level 4.1
x264vfw [info]: frame I:295 Avg QP:18.38 size: 50962
x264vfw [info]: frame P:9917 Avg QP:19.79 size: 29200
x264vfw [info]: frame B:33588 Avg QP:21.76 size: 10783
x264vfw [info]: consecutive B-frames: 2.1% 3.4% 7.2% 28.9% 19.1% 27.5% 5.0% 3.9% 1.4% 0.5% 0.3% 0.3% 0.4%
x264vfw [info]: mb I I16..4: 7.4% 78.6% 14.0%
x264vfw [info]: mb P I16..4: 2.7% 22.3% 2.2% P16..4: 36.9% 20.6% 10.4% 0.6% 0.1% skip: 4.3%
x264vfw [info]: mb B I16..4: 0.2% 1.7% 0.2% B16..8: 40.5% 12.8% 3.0% direct: 9.8% skip:31.8% L0:41.9% L1:46.0% BI:12.1%
x264vfw [info]: 8x8 transform intra:81.2% inter:67.0%
x264vfw [info]: direct mvs spatial:98.2% temporal:1.8%
x264vfw [info]: coded y,uvDC,uvAC intra: 86.8% 78.9% 45.1% inter: 35.3% 24.6% 1.1%
x264vfw [info]: i16 v,h,dc,p: 51% 16% 7% 26%
x264vfw [info]: i8 v,h,dc,ddl,ddr,vr,hd,vl,hu: 11% 9% 7% 9% 13% 13% 13% 12% 14%
x264vfw [info]: i4 v,h,dc,ddl,ddr,vr,hd,vl,hu: 11% 15% 4% 8% 13% 13% 13% 10% 12%
x264vfw [info]: i8c dc,h,v,p: 35% 27% 21% 17%
x264vfw [info]: Weighted P-Frames: Y:12.7% UV:6.6%
x264vfw [info]: ref P L0: 41.0% 12.4% 18.6% 6.2% 5.3% 3.5% 3.3% 1.8% 1.8% 1.4% 1.4% 1.1% 1.1% 1.0% 0.2% 0.0%
x264vfw [info]: ref B L0: 77.5% 10.3% 3.9% 2.1% 1.5% 1.2% 0.9% 0.6% 0.5% 0.5% 0.4% 0.3% 0.2%
x264vfw [info]: ref B L1: 94.8% 5.2%
x264vfw [info]: kb/s:2920.04
Format : Matroska
Format version : Version 2
File size : 2.91 GiB
Duration : 1h 42mn
Overall bit rate : 4 072 Kbps
Encoded date : UTC 2013-04-04 12:27:12
Writing application : mkvmerge v5.6.0 ('Kenya Kane') built on May 27 2012 16:44:04
Writing library : libebml v1.2.3 + libmatroska v1.3.0

Video
ID : 1
Format : AVC
Format/Info : Advanced Video Codec
Format profile : High@L4.1
Format settings, CABAC : Yes
Format settings, ReFrames : 14 frames
Codec ID : V_MPEG4/ISO/AVC
Duration : 1h 42mn
Bit rate : 2 920 Kbps
Width : 1 024 pixels
Height : 572 pixels
Display aspect ratio : 16:9
Frame rate mode : Constant
Frame rate : 23.976 fps
Color space : YUV
Chroma subsampling : 4:2:0
Bit depth : 8 bits
Scan type : Progressive
Bits/(Pixel*Frame) : 0.208
Stream size : 2.03 GiB (70%)
Title : AVC 1024x572@23.976 fps ~2920 kBit/s 2-pass High 4.1 16:9
Writing library : x264 core 125 r2200bm 999b753
Encoding settings : cabac=1 / ref=14 / deblock=1:-1:-1 / analyse=0x3:0x133 / me=umh / subme=10 / psy=1 / psy_rd=1.00:0.05 / mixed_ref=1 / me_range=32 / chroma_me=1 / trellis=2 / 8x8dct=1 / cqm=0 / deadzone=21,11 / fast_pskip=0 / chroma_qp_offset=-3 / threads=6 / lookahead_threads=1 / sliced_threads=0 / nr=0 / decimate=1 / interlaced=0 / bluray_compat=0 / constrained_intra=0 / bframes=12 / b_pyramid=2 / b_adapt=2 / b_bias=0 / direct=3 / weightb=1 / open_gop=0 / weightp=2 / keyint=250 / keyint_min=23 / scenecut=40 / intra_refresh=0 / rc=2pass / mbtree=0 / bitrate=2920 / ratetol=1.0 / qcomp=0.90 / qpmin=10 / qpmax=69 / qpstep=4 / cplxblur=40.0 / qblur=1.2 / ip_ratio=1.35 / pb_ratio=1.30 / aq=2:1.20
Language : English
Default : Yes
Forced : No

Audio #1
ID : 2
Format : AC-3
Format/Info : Audio Coding 3
Mode extension : CM (complete main)
Format settings, Endianness : Big
Codec ID : A_AC3
Duration : 1h 42mn
Bit rate mode : Constant
Bit rate : 384 Kbps
Channel(s) : 6 channels
Channel positions : Front: L C R, Side: L R, LFE
Sampling rate : 48.0 KHz
Bit depth : 16 bits
Compression mode : Lossy
Stream size : 281 MiB (9%)
Title : DVO R5 AC3 384 kBit/s 48kHz 5.1 DD
Language : Russian
Default : Yes
Forced : No

Audio #2
ID : 3
Format : AC-3
Format/Info : Audio Coding 3
Mode extension : CM (complete main)
Format settings, Endianness : Big
Codec ID : A_AC3
Duration : 1h 42mn
Bit rate mode : Constant
Bit rate : 384 Kbps
Channel(s) : 6 channels
Channel positions : Front: L C R, Side: L R, LFE
Sampling rate : 48.0 KHz
Bit depth : 16 bits
Compression mode : Lossy
Stream size : 281 MiB (9%)
Title : AVO Гаврилов AC3 384 kBit/s 48kHz 5.1 DD
Language : Russian
Default : No
Forced : No

Audio #3
ID : 4
Format : AC-3
Format/Info : Audio Coding 3
Mode extension : CM (complete main)
Format settings, Endianness : Big
Codec ID : A_AC3
Duration : 1h 42mn
Bit rate mode : Constant
Bit rate : 384 Kbps
Channel(s) : 6 channels
Channel positions : Front: L C R, Side: L R, LFE
Sampling rate : 48.0 KHz
Bit depth : 16 bits
Compression mode : Lossy
Stream size : 281 MiB (9%)
Title : English AC3 384 kBit/s 48kHz 5.1 DD
Language : English
Default : No
Forced : No

Text
ID : 5
Format : UTF-8
Codec ID : S_TEXT/UTF8
Codec ID/Info : UTF-8 Plain Text
Language : English
Default : No
Forced : No



Скачать Рикошет.Ricochet.(Рассел.Малкэй).[1991.криминальный.боевик.HDTVRip].[DVO]x2+[AVO]+[Sub]+[Оригинал].torrent без регистрации
Золото ЗОЛОТАЯ РАЗДАЧА! СКАЧАННОЕ НЕ ЗАСЧИТЫВАЕТСЯ! Золото
Дата: Зарегистрирован   [ Тип: внутренний ] Как тут cкачать?
MAGNET ссылка
MAGNET ссылка


Скачать .torrent

16 KB

Статус: проверено DHT
Скачан: торрент - 143 раз, раздача полностью - 37 раз
Размер: 3,05 GB
Оценка:  - (Голосов: 0)
Поблагодарили: 1
Поделиться ссылкой на эту раздачу с друзьями:
В контактеFacebookОдноклассникиTwitterLivejournalМой МирLiveinternet
 

 
Показать сообщения:    


Вы не можете начинать темы
Вы не можете отвечать на сообщения
Вы не можете редактировать свои сообщения
Вы не можете удалять свои сообщения
Вы не можете голосовать в опросах
Вы не можете прикреплять файлы к сообщениям
Вы можете скачивать файлы