Loading...
Error

Скачать Прослушка / The Wire (Полный 1-ый сезон) (Джо Чаппелль, Эрнест Р. Дикерсон, Кларк Джонсон) [2002 г., триллер, драма, криминал, детектив, WEB-DLRip] [400p] [AVO] (Ю. Сербин) торрент без регистрации

 
Статистика раздачи
Размер:  14,81 GB   |    Скачан:  370 раз
Сидов:  1  [  0 KB/s  ]   Личеров:  1  [  0 KB/s  ]  
 
Автор Сообщение

leon030982

[] 

Прослушка / The Wire



Год выхода в эфир: 2002
Страна: США | HBO
Жанр: криминальная драма
Продолжительность: ~60 минут
Перевод: Авторский (одноголосый, закадровый)[Юрий Сербин]
[b]Режиссеры
: Тим Ван Паттен, Джо Чаппелль, Эрнест Р. Дикерсон, Кларк Джонсон и другие...
В ролях: Доминик Уэст, Идрис Эльба, Джон Доумен, Уенделл Пирс, Лэнс Реддик, Дирдри Лавджой, Соня Сон, Сет Гиллиам, Доменик Ломбардоззи, Кларк Питерс, Андре Ройо и другие
Описание: Подразделение полицейских в Балтиморе пытается с помощью специальных средств и мероприятий по прослушиванию и скрытой видеосъемке довести до суда расследование преступлений организованных преступных групп, которые занимаются незаконным распространением наркотиков.

Релиз:
Работа с видео: whip93

Качество: WEB-DLRip
Формат: AVI
Видео кодек: XviD
Аудио кодек: AC3
Видео: 720x400, 23,976 fps, XviD ~2000 kbps avg, 0.25 bit/pixel
Аудио #1: 48 kHz, DD, 5.1 ch, 384 kbps avg |Юрий Сербин|
Аудио #2: 48 kHz, DD, 5.1 ch, 384 kbps avg |английский|
Торен обновлен 03.03.15! DVDRip заменен на WEB-DLRip !
Релиз является спонсируемым, благодарим посетителей форума Novafilm за поддержку.
В сериале присутствуют сцены насилия и жестокости, сексуального характера, употребления алкоголя и наркотиков.
Перевод, равно как и оригинал, содержит огромное количество ненормативной лексики.
General
Complete name : D:\Фильмы\The Wire Season 1 CasStudio.TV\The.Wire.S01E01.WEB-DLRip.DUAL.CasStudio.TV.avi
Format : AVI
Format/Info : Audio Video Interleave
File size : 1.21 GiB
Duration : 1h 2mn
Overall bit rate : 2 793 Kbps
Writing application : VirtualDubMod 1.5.10.3 | www.virtualdub-fr.org || (build 2550/release)
Writing library : VirtualDubMod build 2550/release

Video
ID : 0
Format : MPEG-4 Visual
Format profile : Advanced Simple@L5
Format settings, BVOP : 1
Format settings, QPel : No
Format settings, GMC : No warppoints
Format settings, Matrix : Default (MPEG)
Codec ID : XVID
Codec ID/Hint : XviD
Duration : 1h 2mn
Bit rate : 2 011 Kbps
Width : 720 pixels
Height : 400 pixels
Display aspect ratio : 16:9
Frame rate : 23.976 fps
Color space : YUV
Chroma subsampling : 4:2:0
Bit depth : 8 bits
Scan type : Progressive
Compression mode : Lossy
Bits/(Pixel*Frame) : 0.291
Stream size : 893 MiB (72%)
Writing library : XviD 1.2.1 (UTC 2008-12-04)

Audio #1
ID : 1
Format : AC-3
Format/Info : Audio Coding 3
Mode extension : CM (complete main)
Format settings, Endianness : Big
Codec ID : 2000
Duration : 1h 2mn
Bit rate mode : Constant
Bit rate : 384 Kbps
Channel(s) : 6 channels
Channel positions : Front: L C R, Side: L R, LFE
Sampling rate : 48.0 KHz
Bit depth : 16 bits
Compression mode : Lossy
Stream size : 171 MiB (14%)
Alignment : Split accross interleaves
Interleave, duration : 42 ms (1.00 video frame)
Interleave, preload duration : 500 ms

Audio #2
ID : 2
Format : AC-3
Format/Info : Audio Coding 3
Mode extension : CM (complete main)
Format settings, Endianness : Big
Codec ID : 2000
Duration : 1h 2mn
Bit rate mode : Constant
Bit rate : 384 Kbps
Channel(s) : 6 channels
Channel positions : Front: L C R, Side: L R, LFE
Sampling rate : 48.0 KHz
Bit depth : 16 bits
Compression mode : Lossy
Stream size : 171 MiB (14%)
Alignment : Split accross interleaves
Interleave, duration : 42 ms (1.00 video frame)
Interleave, preload duration : 500 ms




Скачать Прослушка.The.Wire.(Полный.1-ый.сезон).(Джо.Чаппелль.Эрнест.Р.Дикерсон.Кларк.Джонсон).[2002.г.триллер.драма.криминал.детектив.WEB-DLRip].[400p].[AVO].(Ю.Сербин).torrent без регистрации
Золото ЗОЛОТАЯ РАЗДАЧА! СКАЧАННОЕ НЕ ЗАСЧИТЫВАЕТСЯ! Золото
Дата: Зарегистрирован   [ Тип: внутренний ] Как тут cкачать?
MAGNET ссылка
MAGNET ссылка


Скачать .torrent

39 KB

Статус: проверено DHT
Скачан: торрент - 370 раз, раздача полностью - 29 раз
Размер: 14,81 GB
Оценка:  5 (Голосов: 3)
Поблагодарили: 7
Поделиться ссылкой на эту раздачу с друзьями:
В контактеFacebookОдноклассникиTwitterLivejournalМой МирLiveinternet
 

 

leon030982

[] 

обновлено az
 
Показать сообщения:    


Вы не можете начинать темы
Вы не можете отвечать на сообщения
Вы не можете редактировать свои сообщения
Вы не можете удалять свои сообщения
Вы не можете голосовать в опросах
Вы не можете прикреплять файлы к сообщениям
Вы можете скачивать файлы