Loading...
Error

Скачать Пожарные Чикаго / Chicago Fire (Сезон 01, серии 01-14 из 24) (Джо Чаппелль, Том ДиЧилло) [2012, Драма, WEB-DL] [1080p] [MVO] (Wayland Team) + [Original] торрент без регистрации

 
Статистика раздачи
Размер:  25,36 GB   |    Скачан:  176 раз
Сидов:  1  [  0 KB/s  ]  
 
Автор Сообщение

leon030982

[] 

Пожарные Чикаго / Chicago Fire (Сезон 01, серии 01-14 из 24)


Год выпуска: 2012
Страна: США
Жанр: Драма
Продолжительность: 00:43:00
Перевод: Любительский (многоголосый закадровый) [Wayland Team]
Русские субтитры: нет

Режиссёр: Джо Чаппелль, Том ДиЧилло

В ролях: Дон Кресс Джесси Спенсер Тейлор Кинни Моника Реймунд Лорен Джерман Чарли Барнетт Имонн Уолкер Юрий Сардаров Кристиан Столте Энн Локхарт

Описание: Сериал рассказывает о самой тяжелой и опасной работе — пожарных и спасателей чикагского отделения Firehouse 51. Несмотря на повседневные геройства мужчин и женщин, их огромная самоотдача приводит к личным потерям. Главный герой Мэтью Кейси, прирожденный лидер и настоящий пожарный. Однако расставание с девушкой заставляет его взглянуть по-новому на многие вещи. Кроме этого, Кейси постоянно находится в конфронтации с другим членом своей команды — лейтенантом Келли Северайдом.

Сэмпл: http://yadi.sk/d/jUT3V_cS25A2u
Качество: WEB-DL 1080p
Формат: MKV
Видео кодек: H.264
Аудио кодек: AC3
Видео: AVC / 1920x1080 (16:9) / 23.976 fps / 4863 Kbps / 0.100 bit/pixel
Аудио: Russian / AC3 / 384 kbps / 48 kHz / 16bit / 5.1 (Wayland team)
Аудио 2: English / AC3 / 384 kbps / 48 kHz / 16bit / 5.1
В четвертой серии:
Аудио: Russian / AC3 / 384 kbps / 48 kHz / 16bit / 5.1 (Wayland team) (Утвержденный состав голосов)
Аудио 2: Russian / AC3 / 384 kbps / 48 kHz / 16bit / 5.1 (Wayland team) (Основной состав группы)
Аудио 3: English / AC3 / 384 kbps / 48 kHz / 16bit / 5.1
В восьмой серии:
Аудио 1: Russian / AC3 / 384 kbps / 48 kHz / 16bit / 5.1 (Wayland team)
Аудио 2: Russian / AC3 / 384 kbps / 48 kHz / 16bit / 5.1 (Wayland team & Elika studios)
Аудио 3: English / AC3 / 384 kbps / 48 kHz / 16bit / 5.1
General
Unique ID : 236490113529489237469606738243357099422 (0xB1EA56D08E19F711A21A8096B045C59E)
Complete name : P:\ПРОЕКТЫ\CF_season_01\РАЗДАЧИ\Chicago Fire S01 HD-1080p (Wayland Team)\Chicago Fire - s01ep01 - Wayland team(1080p).mkv
Format : Matroska
Format version : Version 4 / Version 2
File size : 1.75 GiB
Duration : 43mn 6s
Overall bit rate : 5 810 Kbps
Encoded date : UTC 2013-01-24 14:34:03
Writing application : mkvmerge v6.0.0 ('Coming Up For Air') built on Jan 20 2013 09:52:00
Writing library : libebml v1.3.0 + libmatroska v1.4.0
Video
ID : 1
Format : AVC
Format/Info : Advanced Video Codec
Format profile : High@L4.0
Format settings, CABAC : Yes
Format settings, ReFrames : 4 frames
Codec ID : V_MPEG4/ISO/AVC
Duration : 43mn 6s
Bit rate : 4 863 Kbps
Width : 1 920 pixels
Height : 1 080 pixels
Display aspect ratio : 16:9
Frame rate mode : Constant
Frame rate : 23.976 fps
Color space : YUV
Chroma subsampling : 4:2:0
Bit depth : 8 bits
Scan type : Progressive
Bits/(Pixel*Frame) : 0.098
Stream size : 1.46 GiB (84%)
Language : English
Default : Yes
Forced : No
Color primaries : BT.709
Transfer characteristics : BT.709
Matrix coefficients : BT.709
Audio #1
ID : 2
Format : AC-3
Format/Info : Audio Coding 3
Mode extension : CM (complete main)
Format settings, Endianness : Big
Codec ID : A_AC3
Duration : 43mn 6s
Bit rate mode : Constant
Bit rate : 448 Kbps
Channel(s) : 6 channels
Channel positions : Front: L C R, Side: L R, LFE
Sampling rate : 48.0 KHz
Bit depth : 16 bits
Compression mode : Lossy
Stream size : 138 MiB (8%)
Title : Russian - AC3 / 448kbps / 48KHz / 16bit / 5.1 (Wayland team)
Language : Russian
Default : Yes
Forced : No
Audio #2
ID : 3
Format : AC-3
Format/Info : Audio Coding 3
Mode extension : CM (complete main)
Format settings, Endianness : Big
Codec ID : A_AC3
Duration : 43mn 6s
Bit rate mode : Constant
Bit rate : 384 Kbps
Channel(s) : 6 channels
Channel positions : Front: L C R, Side: L R, LFE
Sampling rate : 48.0 KHz
Bit depth : 16 bits
Compression mode : Lossy
Stream size : 118 MiB (7%)
Title : English - AC3 / 384kbps / 48KHz / 16bit / 5.1
Language : English
Default : No
Forced : No
Внимание! Раздача ведётся путём добавления новых серий; при каждом добавлении создётся новый торрент. Чтобы
начать докачку новой серии, пользователям необходимо сделать следующее:
Остановить скачивание.
Удалить старый торрент у себя из клиента (старые серии удалять не надо, если на них не изготовлена улучшеная замена[Пропер]).
Скачать новый торрент и запустить его у себя в клиенте вместо старого, при этом указать клиенту путь в старую папку куда и
должно происходить скачивание новых серий.
Ваш клиент при этом должен произвести хеширование (проверку) старой папки (если не производит сам - помогите ему сделать
это), и будет докачивать только те серии которых у вас ещё нет. Старые серии при этом не удаляются, а продолжают раздаваться!
Eсли вы уже удалили старые серии, то предотвратить повторную закачку старых серий можно, отжав галочку в соответсвующих местах при
запуске нового торрента. По возможности, желательно не удалять старые серии как можно дольше чтобы релизёр не столько продолжал
раздавать старые серии, а смог сконцентрироваться на новых.
01. Пилотная серия
02. Любовь моя
03. Профессиональная этика
04. Одна минута
05. Ты только держись
06. Зеркало заднего вида
07. Две семьи
08. Покидая станцию
09. Это не просто
10. С Рождеством и т.д.
11. И сказал Господь...



Скачать Пожарные.Чикаго.Chicago.Fire.(Сезон.01.серии.01-14.из.24).(Джо.Чаппелль.Том.ДиЧилло).[2012.Драма.WEB-DL].[1080p].[MVO].(Wayland.Team).+.[Original].torrent без регистрации
Золото ЗОЛОТАЯ РАЗДАЧА! СКАЧАННОЕ НЕ ЗАСЧИТЫВАЕТСЯ! Золото
Дата: Зарегистрирован   [ Тип: внутренний ] Как тут cкачать?
MAGNET ссылка
MAGNET ссылка


Скачать .torrent

65 KB

Статус: проверено DHT
Скачан: торрент - 176 раз, раздача полностью - 0 раз
Размер: 25,36 GB
Оценка:  5 (Голосов: 1)
Поблагодарили: 0
Поделиться ссылкой на эту раздачу с друзьями:
В контактеFacebookОдноклассникиTwitterLivejournalМой МирLiveinternet
 

 

leon030982

[] 

обновлено az
 

leon030982

[] 

обновлено az
 
Показать сообщения:    


Вы не можете начинать темы
Вы не можете отвечать на сообщения
Вы не можете редактировать свои сообщения
Вы не можете удалять свои сообщения
Вы не можете голосовать в опросах
Вы не можете прикреплять файлы к сообщениям
Вы можете скачивать файлы