Loading...
Error

Скачать Шакал / The Jackal (Майкл Кейтон-Джонс / Michael Caton-Jones) [1997, боевик, триллер, криминал, приключения, BDRip-AVC] [VO] (Михаил Яроцкий) (kyberpunk) торрент без регистрации

 
Статистика раздачи
Размер:  2,18 GB   |    Скачан:  144 раза
Сидов:  1  [  0 KB/s  ]  
 
Автор Сообщение

leon030982

[] 

Шакал / The Jackal

Страна: США, Германия, Франция, Япония, Великобритания
Жанр: боевик, триллер, криминал, приключения
Год выпуска: 1997
Продолжительность: 02:04:29
Перевод: Одноголосый закадровый - Михаил Яроцкий (kyberpunk)
Cубтитры: нет
Оригинальная аудиодорожка: нет

Режиссер: Майкл Кейтон-Джонс / Michael Caton-Jones

В ролях: Брюс Уиллис, Ричард Гир, Сидни Пуатье, Дайан Венора, Матильда Мэй, Дж.К. Симмонс, Ричард Лайнбэк, Джон Каннингэм, Джек Блэк, Тесс Харпер, Лесли Филлипс, Стивен Спинелла и др.

Описание:
«Шакал» - это кличка. Под ней скрывается один из самых неуловимых преступников международного масштаба, наемный киллер, выполняющий самые сложные задания тех «работодателей», кто способен заплатить немалые деньги. После того, как в московском ночном клубе прошла совместная операция американских спецслужб и российской милиции, был убит один из главарей русской мафии, брат покойного обратился к Шакалу и сделал «заказ».
Информация об этом просочилась в ФБР. Стало ясно, что целью киллера является кто-то «на самом верху» Белого дома. Чтобы остановить Шакала, американцы выпускают из тюрьмы ирландского террориста Деклана Малкуина, у которого свои счеты с Шакалом и который - единственный! - знает наемного убийцу в лицо…


Доп. информация:
Перевод доступен благодаря mihey10, RAUL, farivan, будулайроманов. Работа со звуком Perevodman.

Файл:
Качество видео: BDRip-AVC, [Blu-ray disc (custom) 1080p]
Формат видео: MKV
Видео: 1024x432 (2,40:1), 23,976 fps, ~2063 kbps avg, 0.195 bit/pixel
Аудио: 48 kHz, AC3 Dolby Digital, 3/2 (L,C,R,l,r) + LFE ch, 448 kbps
Общее
Уникальный идентификатор : 173920574236088348544199523563602988318 (0x82D7E25A0E15E2279CE5172ECAE04D1E)
Формат : Matroska
Версия формата : Version 2
Размер файла : 2,18 Гбайт
Продолжительность : 2 ч. 4 м.
Общий поток : 2513 Кбит/сек
Дата кодирования : UTC 2013-04-12 07:19:45
Программа кодирования : mkvmerge v5.5.0 ('Healer') built on Apr 24 2012 23:47:03
Библиотека кодирования : libebml v1.2.3 + libmatroska v1.3.0
Видео
Идентификатор : 1
Формат : AVC
Формат/Информация : Advanced Video Codec
Профиль формата : High@L4.1
Параметр CABAC формата : Да
Параметр ReFrames формата : 12 кадров
Идентификатор кодека : V_MPEG4/ISO/AVC
Продолжительность : 2 ч. 4 м.
Битрейт : 2063 Кбит/сек
Ширина : 1024 пикселя
Высота : 432 пикселя
Соотношение сторон : 2,40:1
Режим частоты кадров : Постоянный
Частота кадров : 23,976 кадра/сек
Цветовое пространство : YUV
Субдискретизация насыщенности : 4:2:0
Битовая глубина : 8 бит
Тип развёртки : Прогрессивная
Бит/(Пиксели*Кадры) : 0.195
Размер потока : 1,75 Гбайт (80%)
Библиотека кодирования : x264 core 124 r2197 69a0443
Настройки программы : cabac=1 / ref=12 / deblock=1:-3:-3 / analyse=0x3:0x111 / me=umh / subme=7 / psy=1 / psy_rd=1.00:0.00 / mixed_ref=1 / me_range=24 / chroma_me=1 / trellis=2 / 8x8dct=1 / cqm=0 / deadzone=21,11 / fast_pskip=0 / chroma_qp_offset=-2 / threads=6 / sliced_threads=0 / nr=0 / decimate=1 / interlaced=0 / bluray_compat=0 / constrained_intra=0 / bframes=9 / b_pyramid=2 / b_adapt=2 / b_bias=0 / direct=3 / weightb=1 / open_gop=0 / weightp=2 / keyint=250 / keyint_min=23 / scenecut=40 / intra_refresh=0 / rc_lookahead=50 / rc=2pass / mbtree=1 / bitrate=2063 / ratetol=1.0 / qcomp=0.60 / qpmin=0 / qpmax=69 / qpstep=4 / cplxblur=20.0 / qblur=0.5 / ip_ratio=1.40 / aq=1:1.10
Default : Да
Forced : Нет
Аудио
Идентификатор : 2
Формат : AC-3
Формат/Информация : Audio Coding 3
Расширение режима : CM (complete main)
Параметр Endianness формата : Big
Идентификатор кодека : A_AC3
Продолжительность : 2 ч. 4 м.
Вид битрейта : Постоянный
Битрейт : 448 Кбит/сек
Каналы : 6 каналов
Расположение каналов : Front: L C R, Side: L R, LFE
Частота : 48,0 КГц
Битовая глубина : 16 бит
Метод сжатия : С потерями
Размер потока : 399 Мбайт (18%)
Default : Да
Forced : Нет



Скачать Шакал.The.Jackal.(Майкл.Кейтон-Джонс.Michael.Caton-Jones).[1997.боевик.триллер.криминал.приключения.BDRip-AVC].[VO].(Михаил.Яроцкий).(kyberpunk).torrent без регистрации
Золото ЗОЛОТАЯ РАЗДАЧА! СКАЧАННОЕ НЕ ЗАСЧИТЫВАЕТСЯ! Золото
Дата: Зарегистрирован   [ Тип: внутренний ] Как тут cкачать?
MAGNET ссылка
MAGNET ссылка


Скачать .torrent

12 KB

Статус: проверено DHT
Скачан: торрент - 144 раз, раздача полностью - 36 раз
Размер: 2,18 GB
Оценка:  5 (Голосов: 1)
Поблагодарили: 3
Поделиться ссылкой на эту раздачу с друзьями:
В контактеFacebookОдноклассникиTwitterLivejournalМой МирLiveinternet
 

 
Показать сообщения:    


Вы не можете начинать темы
Вы не можете отвечать на сообщения
Вы не можете редактировать свои сообщения
Вы не можете удалять свои сообщения
Вы не можете голосовать в опросах
Вы не можете прикреплять файлы к сообщениям
Вы можете скачивать файлы