Loading...
Error

Скачать Моя ужасная няня / Nanny McPhee (Кирк Джонс) [2005, фэнтези, комедия, семейный, HDRip-AVC] [Dub]+[DVO] торрент без регистрации

 
Статистика раздачи
Размер:  2,58 GB   |    Скачан:  117 раз
Сидов:  1  [  0 KB/s  ]  
 
Автор Сообщение

Marsianka

[] 

Информация о фильме
Название: Моя ужасная няня
Оригинальное название: Nanny McPhee
Год выхода: 2005
Жанр: фэнтези, комедия, семейный
Режиссер: Кирк Джонс
В ролях: Эмма Томпсон, Колин Ферт, Келли Макдоналд, Томас Броди Сэнгстер, Элиза Беннетт, Дженнифер Рэй Дэйкин, Рафаэль Коулмэн, Сэм Хонивуд, Холли Гиббс, Хебе Барнс

О фильме:
Попав в дом к недавно овдовевшему мистеру Брауну, няня-волшебница пытается усмирить его семерых непослушных детей. Эти сорванцы, возглавляемые Саймоном, уже избавились от 17 предыдущих нянь и поэтому не сомневаются, что и 18-ю ждет та же участь. Однако, когда няне Макфи все-таки удается взять ситуацию под контроль, детишки вдруг начинают замечать, что их ужасное поведение волшебным образом приводит к совершенно удивительным и непредсказуемым результатам



Страна: США, Франция, Великобритания, Metro-Goldwyn-Mayer (MGM), Nanny McPhee Productions, Studio Canal, Three Strange Angels, Universal Pictures, Working Title Films
Продолжительность: 01:38:36
Перевод: Дублированный, профессиональный двухголосый (Гланц и Королёва)
Дата релиза: 12.04.2013

Файл
Кодек: H.264
Качество: HDRip (AVC)
Видео: MPEG-4 AVC, 2399 Кбит/с, 1024x436
Звук: Русский, английский (AC3, 6 ch, 448 Кбит/с)
Общее
Уникальный идентификатор : 216325050603845717913714690527029198867 (0xA2BEB073DC7DCF6C80081DED52AD8013)
Полное имя : D:2Moja.uzhasnaja.njanja.2005.x264.HDRip.(AVC).ExKinoRay.mkv
Формат : Matroska
Размер файла : 2,58 Гбайт
Продолжительность : 1 ч. 38 м.
Общий поток : 3744 Кбит/сек
Название фильма : Moja.uzhasnaja.njanja.2005.x264.HDRip.(AVC).ExKinoRay
Дата кодирования : UTC 2013-04-10 17:29:45
Программа кодирования : mkvmerge v4.0.0 ('The Stars were mine') сборка от Jun 6 2010 16:18:42
Библиотека кодирования : libebml v1.0.0 + libmatroska v1.0.0

Видео
Идентификатор : 1
Формат : AVC
Формат/Информация : Advanced Video Codec
Профиль формата : High@L4.1
Параметр CABAC формата : Да
Параметр ReFrames формата : 10 кадров
Идентификатор кодека : V_MPEG4/ISO/AVC
Продолжительность : 1 ч. 38 м.
Битрейт : 2399 Кбит/сек
Ширина : 1024 пикс.
Высота : 436 пикс.
Соотношение сторон : 2,35:1
Частота кадров : 23,976 кадр/сек
Цветовое пространство : YUV
Подвыборка цветности : 4:2:0
Битовая глубина : 8 бит
Тип развёртки : Прогрессивная
Бит/(Пиксели*Кадры) : 0.224
Размер потока : 1,60 Гбайт (62%)
Заголовок : Rip by Enigma-Vladislav71
Библиотека кодирования : x264 core 129 r2245 bc13772
Настройки программы : cabac=1 / ref=10 / deblock=1:-3:-3 / analyse=0x3:0x133 / me=umh / subme=11 / psy=1 / psy_rd=1.00:0.00 / mixed_ref=1 / me_range=48 / chroma_me=1 / trellis=2 / 8x8dct=1 / cqm=0 / deadzone=21,11 / fast_pskip=0 / chroma_qp_offset=-2 / threads=3 / lookahead_threads=1 / sliced_threads=0 / nr=0 / decimate=0 / interlaced=0 / bluray_compat=0 / constrained_intra=0 / bframes=8 / b_pyramid=2 / b_adapt=2 / b_bias=0 / direct=3 / weightb=1 / open_gop=0 / weightp=2 / keyint=240 / keyint_min=23 / scenecut=40 / intra_refresh=0 / rc_lookahead=40 / rc=2pass / mbtree=1 / bitrate=2399 / ratetol=1.0 / qcomp=0.60 / qpmin=10 / qpmax=51 / qpstep=4 / cplxblur=20.0 / qblur=0.5 / ip_ratio=1.40 / aq=2:1.00
Язык : English

Аудио #1
Идентификатор : 2
Формат : AC-3
Формат/Информация : Audio Coding 3
Расширение режима : CM (complete main)
Идентификатор кодека : A_AC3
Продолжительность : 1 ч. 38 м.
Вид битрейта : Постоянный
Битрейт : 448 Кбит/сек
Каналы : 6 каналов
Расположение каналов : Front: L C R, Side: L R, LFE
Частота : 48,0 КГц
Битовая глубина : 16 бит
Метод сжатия : С потерями
Размер потока : 316 Мбайт (12%)
Заголовок : Дублированный
Язык : Russian

Аудио #2
Идентификатор : 3
Формат : AC-3
Формат/Информация : Audio Coding 3
Расширение режима : CM (complete main)
Идентификатор кодека : A_AC3
Продолжительность : 1 ч. 38 м.
Вид битрейта : Постоянный
Битрейт : 448 Кбит/сек
Каналы : 6 каналов
Расположение каналов : Front: L C R, Side: L R, LFE
Частота : 48,0 КГц
Битовая глубина : 16 бит
Метод сжатия : С потерями
Размер потока : 316 Мбайт (12%)
Заголовок : Профессиональный двухголосый (Гланц и Королёва)
Язык : Russian

Аудио #3
Идентификатор : 4
Формат : AC-3
Формат/Информация : Audio Coding 3
Расширение режима : CM (complete main)
Идентификатор кодека : A_AC3
Продолжительность : 1 ч. 38 м.
Вид битрейта : Постоянный
Битрейт : 448 Кбит/сек
Каналы : 6 каналов
Расположение каналов : Front: L C R, Side: L R, LFE
Частота : 48,0 КГц
Битовая глубина : 16 бит
Метод сжатия : С потерями
Размер потока : 316 Мбайт (12%)
Заголовок : английский
Язык : English
Семпл Релиз от:

Авторы релиза:



Скачать Моя.ужасная.няня.Nanny.McPhee.(Кирк.Джонс).[2005.фэнтези.комедия.семейный.HDRip-AVC].[Dub]+[DVO].torrent без регистрации
Золото ЗОЛОТАЯ РАЗДАЧА! СКАЧАННОЕ НЕ ЗАСЧИТЫВАЕТСЯ! Золото
Дата: Зарегистрирован   [ Тип: внутренний ] Как тут cкачать?
MAGNET ссылка
MAGNET ссылка


Скачать .torrent

13 KB

Статус: проверено DHT
Скачан: торрент - 117 раз, раздача полностью - 84 раз
Размер: 2,58 GB
Оценка:  - (Голосов: 0)
Поблагодарили: 0
Поделиться ссылкой на эту раздачу с друзьями:
В контактеFacebookОдноклассникиTwitterLivejournalМой МирLiveinternet
 

 
Показать сообщения:    


Вы не можете начинать темы
Вы не можете отвечать на сообщения
Вы не можете редактировать свои сообщения
Вы не можете удалять свои сообщения
Вы не можете голосовать в опросах
Вы не можете прикреплять файлы к сообщениям
Вы можете скачивать файлы