Loading...
Error

Скачать Зона преступности / City of Industry (Джон Ирвин) [1997, триллер, драма, криминал, HDTVRip] [DVO]+[AVO] торрент без регистрации

 
Статистика раздачи
Размер:  1,46 GB   |    Скачан:  111 раз
Сидов:  1  [  0 KB/s  ]  
 
Автор Сообщение

Marsianka

[] 



Информация о фильме
Название: Зона преступности
Оригинальное название: City of Industry
Год выхода: 1997
Жанр: триллер, драма, криминал
Режиссер: Джон Ирвин
В ролях: Харви Кейтель, Стивен Дорфф, Тимоти Хаттон, Фамке Янссен, Уэйд Домингес, Майкл Джей Уайт, Люси Лью, Рено Уилсон, Дэна Баррон, Тамара Клеттербак

О фильме:
Братья Рой и Ли Иган задумывают ограбление ювелирного магазина в Палм-Спрингс. Для этого они привлекают еще двоих: расчетливого Хорхе Монтану и отчаянного Скипа Ковича.
Но, планируя операцию и меры безопасности, они не учли, что жадность, подкрепленная хладнокровной жестокостью, может стать их главным врагом в этом деле.




Страна: США
Продолжительность: 01:36:55
Перевод: Профессиональный (двухголосый, закадровый), авторский (одноголосый) Петр Карцев

Файл
Кодек: Xvid
Качество: HDTVRip
Видео: 720x400, 23.976 fps, 1751 Kbps
Аудио 1: AC3, 2 ch, 192.00 kbps...............Профессиональный (двухголосый, закадровый)
Аудио 2: AC3, 2 ch, 192.00 kbps...............авторский (одноголосый) Петр Карцев
General
Complete name : City.of.Industry.1997.HDTVRip.avi
Format : AVI
Format/Info : Audio Video Interleave
File size : 1.46 GiB
Duration : 1h 36mn
Overall bit rate : 2 149 Kbps
Writing application : VirtualDubMod 1.5.10.2 (build 2542/release)
Writing library : VirtualDubMod build 2542/release

Video
ID : 0
Format : MPEG-4 Visual
Format profile : Advanced Simple@L5
Format settings, BVOP : 1
Format settings, QPel : No
Format settings, GMC : No warppoints
Format settings, Matrix : Custom
Codec ID : XVID
Codec ID/Hint : XviD
Duration : 1h 36mn
Bit rate : 1 751 Kbps
Width : 720 pixels
Height : 400 pixels
Display aspect ratio : 16:9
Frame rate : 23.976 fps
Color space : YUV
Chroma subsampling : 4:2:0
Bit depth : 8 bits
Scan type : Progressive
Compression mode : Lossy
Bits/(Pixel*Frame) : 0.254
Stream size : 1.19 GiB (81%)
Writing library : XviD 65

Audio #1
ID : 1
Format : AC-3
Format/Info : Audio Coding 3
Mode extension : CM (complete main)
Format settings, Endianness : Big
Codec ID : 2000
Duration : 1h 36mn
Bit rate mode : Constant
Bit rate : 192 Kbps
Channel(s) : 2 channels
Channel positions : Front: L R
Sampling rate : 48.0 KHz
Bit depth : 16 bits
Compression mode : Lossy
Stream size : 133 MiB (9%)
Alignment : Split accross interleaves
Interleave, duration : 42 ms (1.00 video frame)
Interleave, preload duration : 500 ms

Audio #2
ID : 2
Format : AC-3
Format/Info : Audio Coding 3
Mode extension : CM (complete main)
Format settings, Endianness : Big
Codec ID : 2000
Duration : 1h 36mn
Bit rate mode : Constant
Bit rate : 192 Kbps
Channel(s) : 2 channels
Channel positions : Front: L R
Sampling rate : 48.0 KHz
Bit depth : 16 bits
Compression mode : Lossy
Stream size : 133 MiB (9%)
Alignment : Split accross interleaves
Interleave, duration : 42 ms (1.00 video frame)
Interleave, preload duration : 500 ms
Релиз от: Leon-masl



Скачать Зона.преступности.City.of.Industry.(Джон.Ирвин).[1997.триллер.драма.криминал.HDTVRip].[DVO]+[AVO].torrent без регистрации
Золото ЗОЛОТАЯ РАЗДАЧА! СКАЧАННОЕ НЕ ЗАСЧИТЫВАЕТСЯ! Золото
Дата: Зарегистрирован   [ Тип: внутренний ] Как тут cкачать?
MAGNET ссылка
MAGNET ссылка


Скачать .torrent

15 KB

Статус: проверено DHT
Скачан: торрент - 111 раз, раздача полностью - 21 раз
Размер: 1,46 GB
Оценка:  - (Голосов: 0)
Поблагодарили: 1
Поделиться ссылкой на эту раздачу с друзьями:
В контактеFacebookОдноклассникиTwitterLivejournalМой МирLiveinternet
 

 
Показать сообщения:    


Вы не можете начинать темы
Вы не можете отвечать на сообщения
Вы не можете редактировать свои сообщения
Вы не можете удалять свои сообщения
Вы не можете голосовать в опросах
Вы не можете прикреплять файлы к сообщениям
Вы можете скачивать файлы