Loading...
Error

Скачать Воздух, которым я дышу / The Air I Breathe (Джихо Ли) [2007, триллер, драма, криминал, HDRip] [MVO]+[Sub] торрент без регистрации

 
Статистика раздачи
Размер:  746 MB   |    Скачан:  110 раз
Сидов:  1  [  0 KB/s  ]  
 
Автор Сообщение

Marsianka

[] 

Информация о фильме
Название: Воздух, которым я дышу
Оригинальное название: The Air I Breathe
Год выхода: 2007
Жанр: триллер, драма, криминал
Режиссер: Джихо Ли / Jieho Lee
В ролях: Кевин Бэйкон, Брендан Фрейзер, Сара Мишель Геллар, Эмиль Хирш, Форест Уитейкер, Жюли Дельпи, Энди Гарсиа, Кларк Грегг

О фильме:
Основанная на старинной китайской пословице криминальная драма рассказывает четыре человеческие истории, выражающие счастье, печаль, наслаждение и любовь. Счастье в истории духовно опустошенного банкира. Потеряв все, он решается на ограбление банка и неожиданно находит себя. Печаль и наслаждение в рассказах о поп-певице, находящейся на пике карьеры и бандите, способном предвидеть будущее. История врача, отчаянно старающегося спасти человеческую жизнь, выражает любовь.



Страна: Мексика, США
Студия: THINKFilm, Path™
Продолжительность: 01:35:05
Перевод: Профессиональный (многоголосый, закадровый)

Файл
Кодек: XviD / MP3
Качество: HDRip
Видео: 688x384 (1.79:1), 23.976 fps, XviD build 47 ~959 kbps avg, 0.15 bit/pixel
Звук: 48 kHz, MPEG Layer 3, 2 ch, ~128.00 kbps avg
Субтитры: Английские (вшитые)
General
Complete name : /media/The.Air.I.Breathe.2007.HDRip.XviD.Rus.avi
Format : AVI
Format/Info : Audio Video Interleave
File size : 746 MiB
Duration : 1h 35mn
Overall bit rate : 1 097 Kbps
Writing application : VirtualDubMod 1.5.10.2 (build 2540/release)
Writing library : VirtualDubMod build 2540/release

Video
ID : 0
Format : MPEG-4 Visual
Format profile : Advanced Simple@L5
Format settings, BVOP : 1
Format settings, QPel : No
Format settings, GMC : No warppoints
Format settings, Matrix : Default (H.263)
Codec ID : XVID
Codec ID/Hint : XviD
Duration : 1h 35mn
Bit rate : 959 Kbps
Width : 688 pixels
Height : 384 pixels
Display aspect ratio : 16:9
Frame rate : 23.976 fps
Color space : YUV
Chroma subsampling : 4:2:0
Bit depth : 8 bits
Scan type : Progressive
Compression mode : Lossy
Bits/(Pixel*Frame) : 0.151
Stream size : 653 MiB (87%)
Writing library : XviD 1.2.0.dev47 (UTC 2006-11-01)

Audio
ID : 1
Format : MPEG Audio
Format version : Version 1
Format profile : Layer 3
Codec ID : 55
Codec ID/Hint : MP3
Duration : 1h 35mn
Bit rate mode : Constant
Bit rate : 128 Kbps
Channel(s) : 2 channels
Sampling rate : 48.0 KHz
Compression mode : Lossy
Stream size : 87.1 MiB (12%)
Alignment : Aligned on interleaves
Interleave, duration : 42 ms (1.00 video frame)
Interleave, preload duration : 504 ms
Writing library : LAME3.97
Encoding settings : -m s -V 4 -q 2 -lowpass 17 -b 128



Скачать Воздух.которым.я.дышу.The.Air.I.Breathe.(Джихо.Ли).[2007.триллер.драма.криминал.HDRip].[MVO]+[Sub].torrent без регистрации
Золото ЗОЛОТАЯ РАЗДАЧА! СКАЧАННОЕ НЕ ЗАСЧИТЫВАЕТСЯ! Золото
Дата: Зарегистрирован   [ Тип: внутренний ] Как тут cкачать?
MAGNET ссылка
MAGNET ссылка


Скачать .torrent

15 KB

Статус: проверено DHT
Скачан: торрент - 110 раз, раздача полностью - 53 раз
Размер: 746 MB
Оценка:  - (Голосов: 0)
Поблагодарили: 0
Поделиться ссылкой на эту раздачу с друзьями:
В контактеFacebookОдноклассникиTwitterLivejournalМой МирLiveinternet
 

 
Показать сообщения:    


Вы не можете начинать темы
Вы не можете отвечать на сообщения
Вы не можете редактировать свои сообщения
Вы не можете удалять свои сообщения
Вы не можете голосовать в опросах
Вы не можете прикреплять файлы к сообщениям
Вы можете скачивать файлы