Loading...
Error

Скачать Во имя справедливости / Out for Justice (Джон Флинн) [1991, боевик, триллер, драма, криминал, BDRip-AVC] [Dub]+[MVO]+[DVO]+[AVO]+[Sub] торрент без регистрации

 
Статистика раздачи
Размер:  3,58 GB   |    Скачан:  113 раз
Сидов:  1  [  0 KB/s  ]  
 
Автор Сообщение

Marsianka

[] 



Информация о фильме
Название: Во имя справедливости
Оригинальное название: Out for Justice
Год выхода: 1991
Жанр: боевик, триллер, драма, криминал
Режиссер: Джон Флинн
В ролях: Стивен Сигал, Уильям Форсайт, Джерри Орбах, Джо Чампа, Шэрин Митчелл, Сэл Ричардс, Джина Гершон, Джей Аковоне, Ник Корелло, Роберт ЛаСардо, Джон Тоулс-Бей, Джо Спатаро, Рон Брумбилоу, Джэк Чиполла, Чик Дэниел, Джон Сенгер, Стив Тейлор, Джулиус Нассо мл., Дайан Петерсон, Эд Дику, Винсент Нассо, Джерри Стривелли, Джером Альварадо, Дэвид Басальто, Дэнни Иглоуиц, Фрэнк Фагилла Мл., Сэл Сирафино Томасетти, Джанни Руссо, Рональд Макконе, Алан Билор, Джордж Вальехо, Карл Киарфалио

О фильме:
Бруклин. Один из известных и наиболее сложных и небезопасных районов Нью-Йорка. Здесь возможно все, например, полицейского Бобби Лапо драг-диллер Ричи Мадано застрелил средь бело дня на 18-ой авеню, прямо на глазах у его семейства... Кто же сможет навести порядок на улицах Бруклина? Полицейский Джино Фелино, друзья называют его Нико, берется за это нелегкое дело. Он и сам когда-то был выходцем из этого неблагополучного района, поэтому хорошо знает законы улиц, а также и многих бандитов в лицо. Знает он и как выглядит Ричи Мадано, ведь когда-то в детстве они даже были дружны...



Страна: США
Студия: Warner Bros. Pictures
Продолжительность: 01:31:24
Перевод: Дублированный, профессиональный (многоголосый закадровый), профессиональный (двухголосый закадровый), авторский (одноголосый закадровый)

Файл
Кодек: h.264
Качество: BDRip-AVC
Видео: 2498 Кбит/с, 1024x428, 23.976 кадр/с
1: Русский (AC3, 6 ch, 384 Кбит/с) Дублированный [Мост-Видео]
2: Русский (AC3, 2 ch, 192 Кбит/с) Профессиональный многоголосый [ТК "Россия"]
3: Русский (AC3, 6 ch, 384 Кбит/с) Авторский одногоголосый [Дмитрий Пучков "Гоблин"]
4: Русский (AC3, 6 ch, 384 Кбит/с) Авторский одногоголосый [Андрей Гаврилов]
5: Английский (AC3, 6 ch, 384 Кбит/с)
Отдельно:
6: Русский (AC3, 2 ch, 224 Кбит/с) Дублированный [Варус-Видео]
7: Русский (AC3, 2 ch, 192 Кбит/с) Двухголосый закадровый [НТВ]
8: Русский (AC3, 2 ch, 192 Кбит/с) Авторский одногоголосый [Алексей Михалёв]
9: Русский (AC3, 2 ch, 192 Кбит/с) Авторский одногоголосый [Юрий Живов]
10: Украинский (AC3, 2 ch, 192 Кбит/с) Профессиональный двухголосый [ТК "1+1"]
11: Украинский (AC3, 2 ch, 192 Кбит/с) Профессиональный многоголосый [ТК "ICTV"]
12: Украинский (AC3, 2 ch, 192 Кбит/с) Профессиональный многоголосый [ТК "Интер"]

Субтитры:
1: Русские
2: Английские
3: Английские [для слабослышащих]

Полное имя : Vo.imya.spravedlivosti.1991.x264.BDRip.(AVC).0ptimus.mkv
Формат : Matroska
Версия формата : Version 4 / Version 2
Размер файла : 2,70 Гбайт
Продолжительность : 1 ч. 31 м.
Общий поток : 4226 Кбит/сек
Название фильма : Во имя справедливости | Out for Justice [1991] -=BDRip (AVC) by 0ptimus=-
Дата кодирования : UTC 2013-04-15 14:38:49
Программа кодирования : mkvmerge v6.1.0 ('Old Devil') built on Mar 2 2013 14:32:37
Библиотека кодирования : libebml v1.3.0 + libmatroska v1.4.0

Видео
Идентификатор : 1
Формат : AVC
Формат/Информация : Advanced Video Codec
Профиль формата : High@L4.1
Параметр CABAC формата : Да
Параметр ReFrames формата : 9 кадров
Идентификатор кодека : V_MPEG4/ISO/AVC
Продолжительность : 1 ч. 31 м.
Битрейт : 2498 Кбит/сек
Ширина : 1024 пикселя
Высота : 428 пикселей
Соотношение сторон : 2,40:1
Частота кадров : 23,976 кадра/сек
Цветовое пространство : YUV
Субдискретизация насыщенности : 4:2:0
Битовая глубина : 8 бит
Тип развёртки : Прогрессивная
Бит/(Пиксели*Кадры) : 0.238
Размер потока : 1,54 Гбайт (57%)
Заголовок : Rip by 0ptimus
Библиотека кодирования : x264 core 130 r2273 b3065e6
Настройки программы : cabac=1 / ref=9 / deblock=1:-3:-3 / analyse=0x3:0x113 / me=umh / subme=11 / psy=1 / psy_rd=1.00:0.20 / mixed_ref=1 / me_range=32 / chroma_me=1 / trellis=2 / 8x8dct=1 / cqm=0 / deadzone=21,11 / fast_pskip=0 / chroma_qp_offset=-3 / threads=3 / lookahead_threads=1 / sliced_threads=0 / nr=0 / decimate=0 / interlaced=0 / bluray_compat=0 / constrained_intra=0 / bframes=8 / b_pyramid=2 / b_adapt=2 / b_bias=0 / direct=3 / weightb=1 / open_gop=0 / weightp=2 / keyint=240 / keyint_min=23 / scenecut=40 / intra_refresh=0 / rc_lookahead=40 / rc=2pass / mbtree=0 / bitrate=2498 / ratetol=1.0 / qcomp=0.60 / qpmin=0 / qpmax=69 / qpstep=4 / cplxblur=20.0 / qblur=0.5 / vbv_maxrate=50000 / vbv_bufsize=50000 / nal_hrd=none / ip_ratio=1.40 / pb_ratio=1.30 / aq=1:1.00
Язык : English

Аудио #1
Идентификатор : 2
Формат : AC-3
Формат/Информация : Audio Coding 3
Расширение режима : CM (complete main)
Идентификатор кодека : A_AC3
Продолжительность : 1 ч. 31 м.
Вид битрейта : Постоянный
Битрейт : 384 Кбит/сек
Каналы : 6 каналов
Расположение каналов : Front: L C R, Side: L R, LFE
Частота : 48,0 КГц
Битовая глубина : 16 бит
Метод сжатия : С потерями
Размер потока : 251 Мбайт (9%)
Заголовок : Дублированный [Мост Видео]
Язык : Russian

Аудио #2
Идентификатор : 3
Формат : AC-3
Формат/Информация : Audio Coding 3
Расширение режима : CM (complete main)
Идентификатор кодека : A_AC3
Продолжительность : 1 ч. 31 м.
Вид битрейта : Постоянный
Битрейт : 192 Кбит/сек
Каналы : 2 канала
Расположение каналов : Front: L R
Частота : 48,0 КГц
Битовая глубина : 16 бит
Метод сжатия : С потерями
Задержка видео : 24 мс.
Размер потока : 126 Мбайт (5%)
Заголовок : Многоголосый закадровый [ТК "Россия"]
Язык : Russian

Аудио #3
Идентификатор : 4
Формат : AC-3
Формат/Информация : Audio Coding 3
Расширение режима : CM (complete main)
Идентификатор кодека : A_AC3
Продолжительность : 1 ч. 31 м.
Вид битрейта : Постоянный
Битрейт : 384 Кбит/сек
Каналы : 6 каналов
Расположение каналов : Front: L C R, Side: L R, LFE
Частота : 48,0 КГц
Битовая глубина : 16 бит
Метод сжатия : С потерями
Размер потока : 251 Мбайт (9%)
Заголовок : Авторский [Дмитрий Пучков (Гоблин)]
Язык : Russian

Аудио #4
Идентификатор : 5
Формат : AC-3
Формат/Информация : Audio Coding 3
Расширение режима : CM (complete main)
Идентификатор кодека : A_AC3
Продолжительность : 1 ч. 31 м.
Вид битрейта : Постоянный
Битрейт : 384 Кбит/сек
Каналы : 6 каналов
Расположение каналов : Front: L C R, Side: L R, LFE
Частота : 48,0 КГц
Битовая глубина : 16 бит
Метод сжатия : С потерями
Задержка видео : 8 мс.
Размер потока : 251 Мбайт (9%)
Заголовок : Авторский [Андрей Гаврилов]
Язык : Russian

Аудио #5
Идентификатор : 6
Формат : AC-3
Формат/Информация : Audio Coding 3
Расширение режима : CM (complete main)
Идентификатор кодека : A_AC3
Продолжительность : 1 ч. 31 м.
Вид битрейта : Постоянный
Битрейт : 384 Кбит/сек
Каналы : 6 каналов
Расположение каналов : Front: L C R, Side: L R, LFE
Частота : 48,0 КГц
Битовая глубина : 16 бит
Метод сжатия : С потерями
Размер потока : 251 Мбайт (9%)
Язык : English

Текст #1
Идентификатор : 7
Формат : UTF-8
Идентификатор кодека : S_TEXT/UTF8
Идентификатор кодека/Информация : UTF-8 Plain Text
Язык : Russian

Текст #2
Идентификатор : 8
Формат : UTF-8
Идентификатор кодека : S_TEXT/UTF8
Идентификатор кодека/Информация : UTF-8 Plain Text
Язык : English

Текст #3
Идентификатор : 9
Формат : UTF-8
Идентификатор кодека : S_TEXT/UTF8
Идентификатор кодека/Информация : UTF-8 Plain Text
Заголовок : SDH
Язык : English

Меню
00:00:00.000 : en:A Pimp's Comeuppance
00:03:39.802 : en:Tonight's Plans
00:07:18.020 : en:An Unmarked and a Shotgun
00:12:15.484 : en:The Mob Gets Mad
00:15:41.231 : en:Surprise Package (No Sleep Till Brooklyn)
00:19:04.017 : en:Hot Pursuit
00:21:40.716 : en:The Butcher Shop
00:24:09.823 : en:Buying Dog Food
00:27:15.550 : en:Mr. and Mrs. Madano
00:29:59.923 : en:Rica Says Yes
00:31:42.650 : en:Gino Plays Pool
00:38:11.122 : en:Neighborhood Montage (Shake the Firm)
00:41:41.040 : en:Breaking with Don Vittorio
00:45:00.656 : en:Patti's Place
00:51:23.121 : en:Chop-Shop Carnage
00:55:31.453 : en:A Truer Picture
00:56:48.321 : en:Memories with Vicky
01:02:18.484 : en:Gino's Place Under Siege
01:05:32.094 : en:More From Terry Malloy
01:08:03.621 : en:Poolroom Massacre
01:11:07.888 : en:"Ain't Pretty"
01:13:42.418 : en:Richie's Going-Away Party
01:17:30.145 : en:Gino Storms the House
01:22:31.196 : en:The Final Battle
01:25:35.130 : en:The "Animal-Lover's" Comeuppance
01:27:00.256 : en:End Credits (Don't Stand in My Way)

x264 [info]: frame I:1000 Avg QP:15.48 size: 66410
x264 [info]: frame P:27830 Avg QP:17.91 size: 25127
x264 [info]: frame B:102666 Avg QP:19.41 size: 9205
Релиз от:



Скачать Во.имя.справедливости.Out.for.Justice.(Джон.Флинн).[1991.боевик.триллер.драма.криминал.BDRip-AVC].[Dub]+[MVO]+[DVO]+[AVO]+[Sub].torrent без регистрации
Золото ЗОЛОТАЯ РАЗДАЧА! СКАЧАННОЕ НЕ ЗАСЧИТЫВАЕТСЯ! Золото
Дата: Зарегистрирован   [ Тип: внутренний ] Как тут cкачать?
MAGNET ссылка
MAGNET ссылка


Скачать .torrent

19 KB

Статус: проверено DHT
Скачан: торрент - 113 раз, раздача полностью - 3 раз
Размер: 3,58 GB
Оценка:  - (Голосов: 0)
Поблагодарили: 2
Поделиться ссылкой на эту раздачу с друзьями:
В контактеFacebookОдноклассникиTwitterLivejournalМой МирLiveinternet
 

 
Показать сообщения:    


Вы не можете начинать темы
Вы не можете отвечать на сообщения
Вы не можете редактировать свои сообщения
Вы не можете удалять свои сообщения
Вы не можете голосовать в опросах
Вы не можете прикреплять файлы к сообщениям
Вы можете скачивать файлы