Loading...
Error

Скачать Ананасовый экспресс: Сижу, курю / Pineapple Express (Дэвид Гордон Грин / David Gordon Green) [2008, комедия, криминал, HDRip] Unrated] торрент без регистрации

 
Статистика раздачи
Размер:  2,18 GB   |    Скачан:  144 раза
Сидов:  1  [  0 KB/s  ]  
 
Автор Сообщение

МихаНЕзатор

[] 



Ананасовый экспресс: Сижу, курю / Pineapple Express (2008) HDRip-Unrated

Страна: США
Жанр: комедия, криминал
Год выпуска: 2008
Продолжительность: 01:57:26

Перевод: Профессиональный (дублированный)
Cубтитры: русские (на места без перевода), русские полные - отдельно
Режиссер: Дэвид Гордон Грин / David Gordon Green

В ролях: Сет Роджен, Джеймс Франко, Дэнни МакБрайд, Кевин Корригэн, Крэйг Робинсон, Гари Коул, Рози Перес, Эд Бегли мл., Нора Данн, Эмбер Хёрд, Артур Напионтек, Клео Кинг, Билл Хадер, Джеймс Ремар, Джонатан Спенсер, Дэна Ли, Бобби Ли, Кен Жонг, Дэвид С. Кук

Описание: Раздолбай и любитель травки случайно становится свидетелем убийства и, прихватив своего дружка, такого же лузера, как он, пытается свалить из города, спасаясь от Плохих Парней. Дело пахнет керосином, ведь мафия решила заставить приятелей замолчать навсегда.

Доп. информация:

Качество видео: HDRip(Исх. BD 1080)
Формат видео: AVI

Видео: 720x304 (2.37:1), 23.976 fps, XviD build 50 ~1751 kbps avg, 0.33 bit/pixel
Аудио: 48 kHz, AC3 Dolby Digital, 3/2 (L,C,R,l,r) + LFE ch, ~448 kbps RUS
Аудио: 48 kHz, AC3 Dolby Digital, 3/2 (L,C,R,l,r) + LFE ch, ~448 kbps ENG
Формат субтитров: softsub (SRT)

File: Pineapple.Express.2.18.chopper887.avi
Title: Pineapple.Express.2.18.chopper887
Author: chopper887
Filesize: 2236.09 Mb ( 2 344 714 240 bytes )
Play length: 01:57:26.550 (168948 frames)
Subtitles: forced, full (SubRip format)
Video: 720x304 (2.37:1), 23.976 fps, XviD build 50 ~1751 kbps avg, 0.33 bit/pixel
Audio #1: 48 kHz, AC3 Dolby Digital, 3/2 (L,C,R,l,r) + LFE ch, ~448 kbps
Audio #2: 48 kHz, AC3 Dolby Digital, 3/2 (L,C,R,l,r) + LFE ch, ~448 kbps

General
Complete name : D:Pineapple.Express.2.18.chopper887Pineapple.Express.2.18.chopper887.avi
Format : AVI
Format/Info : Audio Video Interleave
File size : 2.18 GiB
Duration : 1h 57mn
Overall bit rate : 2 662 Kbps
Writing application : VirtualDubMod 1.5.10.3 | www.virtualdub-fr.org || (build 2550/release)
Writing library : VirtualDubMod build 2550/release

Video
ID : 0
Format : MPEG-4 Visual
Format profile : AdvancedSimple@L5
Format settings, BVOP : Yes
Format settings, QPel : No
Format settings, GMC : No warppoints
Format settings, Matrix : Custom
Codec ID : XVID
Codec ID/Hint : XviD
Duration : 1h 57mn
Bit rate : 1 752 Kbps
Width : 720 pixels
Height : 304 pixels
Display aspect ratio : 2.35:1
Frame rate : 23.976 fps
Resolution : 24 bits
Colorimetry : 4:2:0
Scan type : Progressive
Bits/(Pixel*Frame) : 0.334
Stream size : 1.44 GiB (66%)
Writing library : XviD 1.2.1 (UTC 2008-12-04)

Audio #1
ID : 1
Format : AC-3
Format/Info : Audio Coding 3
Codec ID : 2000
Duration : 1h 57mn
Bit rate mode : Constant
Bit rate : 448 Kbps
Channel(s) : 6 channels
Channel positions : Front: L C R, Surround: L R, LFE
Sampling rate : 48.0 KHz
Stream size : 376 MiB (17%)
Alignment : Split accross interleaves
Interleave, duration : 42 ms (1.00 video frame)
Interleave, preload duration : 500 ms

Audio #2
ID : 2
Format : AC-3
Format/Info : Audio Coding 3
Codec ID : 2000
Duration : 1h 57mn
Bit rate mode : Constant
Bit rate : 448 Kbps
Channel(s) : 6 channels
Channel positions : Front: L C R, Surround: L R, LFE
Sampling rate : 48.0 KHz
Stream size : 376 MiB (17%)
Alignment : Split accross interleaves
Interleave, duration : 42 ms (1.00 video frame)
Interleave, preload duration : 500 ms



Скачать Ананасовый.экспресс.Сижу.курю.Pineapple.Express.(Дэвид.Гордон.Грин.David.Gordon.Green).[2008.комедия.криминал.HDRip].Unrated].torrent без регистрации
Золото ЗОЛОТАЯ РАЗДАЧА! СКАЧАННОЕ НЕ ЗАСЧИТЫВАЕТСЯ! Золото
Дата: Зарегистрирован   [ Тип: внутренний ] Как тут cкачать?
MAGNET ссылка
MAGNET ссылка


Скачать .torrent

12 KB

Статус: проверено DHT
Скачан: торрент - 144 раз, раздача полностью - 56 раз
Размер: 2,18 GB
Оценка:  5 (Голосов: 1)
Поблагодарили: 0
Поделиться ссылкой на эту раздачу с друзьями:
В контактеFacebookОдноклассникиTwitterLivejournalМой МирLiveinternet
 

 
Показать сообщения:    


Вы не можете начинать темы
Вы не можете отвечать на сообщения
Вы не можете редактировать свои сообщения
Вы не можете удалять свои сообщения
Вы не можете голосовать в опросах
Вы не можете прикреплять файлы к сообщениям
Вы можете скачивать файлы