Loading...
Error

Скачать Кукловоды / The Puppet Masters (Стюарт Орм) [1994, ужасы, фантастика, триллер, BDRip] [MVO] торрент без регистрации

 
Статистика раздачи
Размер:  1,46 GB   |    Скачан:  113 раз
Сидов:  1  [  0 KB/s  ]  
 
Автор Сообщение

Marsianka

[] 



Информация о фильме
Название: Кукловоды
Оригинальное название: The Puppet Masters
Год выхода: 1994
Жанр: ужасы, фантастика, триллер
Режиссер: Стюарт Орм
В ролях: Дональд Сазерленд, Эрик Тал, Джули Уорнер, Кит Дэвид, Уилл Пэттон, Ричард Белзер, Том Мэйсон, Яфет Котто, Джерри Бэммен, Сэм Андерсон

О фильме:
Экранизация одноименного романа Р. Хайнлайна. По местному каналу новостей одного небольшого городка США проходит сообщение о том, что в окрестностях городка совершил посадку НЛО. Спустя некоторое время тот же канал опровергает высказанную ранее информацию, представляя ее как выдумку местных мальчишек.

Тем не менее, сотрудники секретной службы направляются туда для проверки сообщения и обнаруживают плохо скроенный макет космической «тарелки».

Чрезмерная любезность и гостеприимство местных жителей заставляют их задуматься о том, что же случилось на самом деле. Уверенность приходит в тот момент, когда на спине одного из жителей городка они обнаруживают странного вида существо-паразита явно неземного происхождения. Но предотвратить беду становится поздно - число людей, зараженных пришельцами, увеличивается не по дням, а по часам.



Страна: США
Продолжительность: 01:48:55
Перевод: Профессиональный (Многоголосый, закадровый)|Первый канал|

Файл
Кодек: Xvid
Качество: BDRip
Видео: 720x304, 23.976 fps, 1718 Kbps
Звук: AC3, 2 ch, 192 kbps, 48.0 khz
General
Complete name : Kuklovojie.1994.BDrip.avi
Format : AVI
Format/Info : Audio Video Interleave
File size : 1.46 GiB
Duration : 1h 48mn
Overall bit rate : 1 919 Kbps
Writing application : VirtualDubMod 1.5.10.3 | www.virtualdub-fr.org || (build 2550/release)
Writing library : VirtualDubMod build 2550/release

Video
ID : 0
Format : MPEG-4 Visual
Format profile : Advanced Simple@L5
Format settings, BVOP : 1
Format settings, QPel : No
Format settings, GMC : No warppoints
Format settings, Matrix : Custom
Codec ID : XVID
Codec ID/Hint : XviD
Duration : 1h 48mn
Bit rate : 1 718 Kbps
Width : 720 pixels
Height : 304 pixels
Display aspect ratio : 2.35:1
Frame rate : 23.976 fps
Color space : YUV
Chroma subsampling : 4:2:0
Bit depth : 8 bits
Scan type : Progressive
Compression mode : Lossy
Bits/(Pixel*Frame) : 0.327
Stream size : 1.31 GiB (89%)
Writing library : XviD 65

Audio
ID : 1
Format : AC-3
Format/Info : Audio Coding 3
Mode extension : CM (complete main)
Format settings, Endianness : Big
Codec ID : 2000
Duration : 1h 48mn
Bit rate mode : Constant
Bit rate : 192 Kbps
Channel(s) : 2 channels
Channel positions : Front: L R
Sampling rate : 48.0 KHz
Bit depth : 16 bits
Compression mode : Lossy
Stream size : 150 MiB (10%)
Alignment : Split accross interleaves
Interleave, duration : 42 ms (1.00 video frame)
Interleave, preload duration : 500 ms
Релиз от: Leon-masl



Скачать Кукловоды.The.Puppet.Masters.(Стюарт.Орм).[1994.ужасы.фантастика.триллер.BDRip].[MVO].torrent без регистрации
Золото ЗОЛОТАЯ РАЗДАЧА! СКАЧАННОЕ НЕ ЗАСЧИТЫВАЕТСЯ! Золото
Дата: Зарегистрирован   [ Тип: внутренний ] Как тут cкачать?
MAGNET ссылка
MAGNET ссылка


Скачать .torrent

15 KB

Статус: проверено DHT
Скачан: торрент - 113 раз, раздача полностью - 30 раз
Размер: 1,46 GB
Оценка:  - (Голосов: 0)
Поблагодарили: 3
Поделиться ссылкой на эту раздачу с друзьями:
В контактеFacebookОдноклассникиTwitterLivejournalМой МирLiveinternet
 

 
Показать сообщения:    


Вы не можете начинать темы
Вы не можете отвечать на сообщения
Вы не можете редактировать свои сообщения
Вы не можете удалять свои сообщения
Вы не можете голосовать в опросах
Вы не можете прикреплять файлы к сообщениям
Вы можете скачивать файлы