Loading...
Error

Скачать Внутреннее расследование / Internal Affairs (Майк Фиггис) [1990, триллер, драма, криминал, WEB-DLRip] [MVO]+[AVO] торрент без регистрации

 
Статистика раздачи
Размер:  1,46 GB   |    Скачан:  98 раз
Сидов:  1  [  0 KB/s  ]  
 
Автор Сообщение

Marsianka

[] 



Информация о фильме
Название: Внутреннее расследование
Оригинальное название: Internal Affairs
Год выхода: 1990
Жанр: триллер, драма, криминал
Режиссер: Майк Фиггис / Mike Figgis
В ролях: Ричард Гир (Dennis Peck), Энди Гарсиа (Raymond Avilla), Лори Меткаф (Amy Wallace), Нэнси Трэвис (Kathleen Avilla), Ричард Брэдфорд (Grieb), Уильям Болдуин (Van Stretch), Майкл Бич (Dorian Fletcher), Кэтрин Боровиц (Tova Arrocas), Фэй Грант (Penny Stretch), Джон Капелос (Steven Arrocas), Ксандер Беркли (Rudy Mohr), Джон Каподиче (Chief Healy)

О фильме:

Когда любой из нас попадает в беду, страж правопорядка, являющийся на помощь, подобен ангелу. В минуты несчастья он - единственный спаситель и защитник.
Вы доверяете ему себя всецело и безоглядно. И ни у кого, ни при каких обстоятельствах не возникнет подозрения, что за благородной внешностью, под аккуратно отутюженным полицейским кителем может скрываться дьявол...




Страна: США
Продолжительность: 01:54:43
Перевод: Профессиональный (многоголосый закадровый), Авторский (одноголосый закадровый) А. Гаврилов

Файл
Кодек: Xvid
Качество: WEB-DLRip
Видео: 720x400, 23.976 fps, 1428 Kbps
Аудио 1: AC3, 2 ch, 192.00 kbps...............Профессиональный (многоголосый закадровый)
Аудио 2: AC3, 2 ch, 192.00 kbps...............Авторский (одноголосый закадровый) А. Гаврилов
General
Complete name : Internal.Affairs.1990.WEB-DLRip.2xRus.avi
Format : AVI
Format/Info : Audio Video Interleave
File size : 1.46 GiB
Duration : 1h 54mn
Overall bit rate : 1 826 Kbps
Writing application : VirtualDubMod 1.5.10.2 (build 2542/release)
Writing library : VirtualDubMod build 2542/release

Video
ID : 0
Format : MPEG-4 Visual
Format profile : Advanced Simple@L5
Format settings, BVOP : 1
Format settings, QPel : No
Format settings, GMC : No warppoints
Format settings, Matrix : Custom
Codec ID : XVID
Codec ID/Hint : XviD
Duration : 1h 54mn
Bit rate : 1 428 Kbps
Width : 720 pixels
Height : 400 pixels
Display aspect ratio : 16:9
Frame rate : 23.976 fps
Color space : YUV
Chroma subsampling : 4:2:0
Bit depth : 8 bits
Scan type : Progressive
Compression mode : Lossy
Bits/(Pixel*Frame) : 0.207
Stream size : 1.14 GiB (78%)
Writing library : XviD 65

Audio #1
ID : 1
Format : AC-3
Format/Info : Audio Coding 3
Mode extension : CM (complete main)
Format settings, Endianness : Big
Codec ID : 2000
Duration : 1h 54mn
Bit rate mode : Constant
Bit rate : 192 Kbps
Channel(s) : 2 channels
Channel positions : Front: L R
Sampling rate : 48.0 KHz
Bit depth : 16 bits
Compression mode : Lossy
Stream size : 158 MiB (11%)
Alignment : Split accross interleaves
Interleave, duration : 42 ms (1.00 video frame)
Interleave, preload duration : 500 ms

Audio #2
ID : 2
Format : AC-3
Format/Info : Audio Coding 3
Mode extension : CM (complete main)
Format settings, Endianness : Big
Codec ID : 2000
Duration : 1h 54mn
Bit rate mode : Constant
Bit rate : 192 Kbps
Channel(s) : 2 channels
Channel positions : Front: L R
Sampling rate : 48.0 KHz
Bit depth : 16 bits
Compression mode : Lossy
Stream size : 158 MiB (11%)
Alignment : Split accross interleaves
Interleave, duration : 42 ms (1.00 video frame)
Interleave, preload duration : 500 ms
Релиз от: Leon-masl



Скачать Внутреннее.расследование.Internal.Affairs.(Майк.Фиггис).[1990.триллер.драма.криминал.WEB-DLRip].[MVO]+[AVO].torrent без регистрации
Золото ЗОЛОТАЯ РАЗДАЧА! СКАЧАННОЕ НЕ ЗАСЧИТЫВАЕТСЯ! Золото
Дата: Зарегистрирован   [ Тип: внутренний ] Как тут cкачать?
MAGNET ссылка
MAGNET ссылка


Скачать .torrent

15 KB

Статус: проверено DHT
Скачан: торрент - 98 раз, раздача полностью - 27 раз
Размер: 1,46 GB
Оценка:  - (Голосов: 0)
Поблагодарили: 2
Поделиться ссылкой на эту раздачу с друзьями:
В контактеFacebookОдноклассникиTwitterLivejournalМой МирLiveinternet
 

 
Показать сообщения:    


Вы не можете начинать темы
Вы не можете отвечать на сообщения
Вы не можете редактировать свои сообщения
Вы не можете удалять свои сообщения
Вы не можете голосовать в опросах
Вы не можете прикреплять файлы к сообщениям
Вы можете скачивать файлы