Loading...
Error

Скачать Отдел 13 / Diamant 13 (Гайллз Бэхат) [2009, боевик, триллер, криминал, BDRip-AVC] [MVO]+[Оригинал] торрент без регистрации

 
Статистика раздачи
Размер:  2,22 GB   |    Скачан:  132 раза
Сидов:  1  [  0 KB/s  ]  
 
Автор Сообщение

Marsianka

[] 

Информация о фильме
Название: Отдел 13
Оригинальное название: Diamant 13
Год выхода: 2009
Жанр: боевик, триллер, криминал
Режиссер: Гайллз Бэхат
В ролях: Жерар Депардье, Оливье Маршаль, Азия Ардженто, Анн Косенс, Айсса Майга, Катрин Маршаль, Эрик Деор, Жан-Франсуа Фолфф, Патрик Хаштерт, Орельен Рекуан, Джералд Марти, Саша Кремер, Корентен Лобе, Жан-Мишель Вовк, Бено Вераер, Ив Деген, Валери Бодсон, Ноэль Байе, Франческо Меренда, Бернард Грачик, Вирджиния Арно, Паскаль Раблен, Норберт Рутили, Патрик Кьюинет, Филипп Шапель, Седрик Константин

О фильме:
Полицейский начинает охоту на своего лучшего друга, который стал одним из самых крупных торговцев наркотиками города



Страна: Франция, Бельгия, Люксембург
Студия: Film Fund Luxembourg, Canal+ [fr], Cine Cinemas, MK2 Productions
Продолжительность: 01:41:58
Перевод: Профессиональный (многоголосый закадровый) + оригинал

Файл
Кодек: MPEG-4 AVC
Качество: BDRip-AVC
Видео: 2221 Кбит/с, 1024x436, 24.000 кадр/с
Звук:
Русский (AC3, 6 ch, 448 Кбит/с)
Французский (AC3, 6 ch, 448 Кбит/с)
Субтитры: Нет

Семпл
General
Unique ID : 227831866266407351998607996677628845629 (0xAB66D2442D8250D3B5ABFC931EE75E3D)
Complete name : D:2Films DРелизыотдел 13Otdel.13.2009.x264.BDRip(AVC)-MediaClub.mkv
Format : Matroska
Format version : Version 2
File size : 2.22 GiB
Duration : 1h 41mn
Overall bit rate : 3 118 Kbps
Movie name : -= Release MediaClub =-
Encoded date : UTC 2013-04-10 19:52:20
Writing application : mkvmerge v4.3.0 ('Escape from the Island') сборка от Sep 5 2010 10:30:51
Writing library : libebml v1.0.0 + libmatroska v1.0.0

Video
ID : 1
Format : AVC
Format/Info : Advanced Video Codec
Format profile : High@L4.1
Format settings, CABAC : Yes
Format settings, ReFrames : 12 frames
Codec ID : V_MPEG4/ISO/AVC
Duration : 1h 41mn
Bit rate : 2 221 Kbps
Width : 1 024 pixels
Height : 436 pixels
Display aspect ratio : 2.35:1
Frame rate : 24.000 fps
Color space : YUV
Chroma subsampling : 4:2:0
Bit depth : 8 bits
Scan type : Progressive
Bits/(Pixel*Frame) : 0.207
Stream size : 1.54 GiB (69%)
Title : Otdel.13.2009.x264.BDRip(AVC)-neni
Writing library : x264 core 130 r2273 b3065e6
Encoding settings : cabac=1 / ref=12 / deblock=1:-2:-1 / analyse=0x3:0x113 / me=umh / subme=11 / psy=1 / psy_rd=1.00:0.00 / mixed_ref=1 / me_range=48 / chroma_me=1 / trellis=2 / 8x8dct=1 / cqm=0 / deadzone=21,11 / fast_pskip=0 / chroma_qp_offset=1 / threads=9 / lookahead_threads=2 / sliced_threads=0 / nr=0 / decimate=0 / interlaced=0 / bluray_compat=0 / constrained_intra=0 / bframes=10 / b_pyramid=2 / b_adapt=2 / b_bias=0 / direct=3 / weightb=1 / open_gop=0 / weightp=2 / keyint=240 / keyint_min=24 / scenecut=40 / intra_refresh=0 / rc_lookahead=60 / rc=2pass / mbtree=0 / bitrate=2221 / ratetol=1.0 / qcomp=0.60 / qpmin=0 / qpmax=69 / qpstep=4 / cplxblur=20.0 / qblur=0.5 / vbv_maxrate=50000 / vbv_bufsize=60000 / nal_hrd=none / ip_ratio=1.40 / pb_ratio=1.30 / aq=1:0.80
Language : Russian
Default : Yes
Forced : Yes

Audio #1
ID : 2
Format : AC-3
Format/Info : Audio Coding 3
Mode extension : CM (complete main)
Codec ID : A_AC3
Duration : 1h 41mn
Bit rate mode : Constant
Bit rate : 448 Kbps
Channel(s) : 6 channels
Channel positions : Front: L C R, Side: L R, LFE
Sampling rate : 48.0 KHz
Bit depth : 16 bits
Compression mode : Lossy
Stream size : 327 MiB (14%)
Title : Russian: 48 kHz, AC3, 3/2 (L,C,R,l,r) + LFE ch, ~448.00 kbps avg |Многоголосый закадровый, R5|
Language : Russian
Default : Yes
Forced : Yes

Audio #2
ID : 3
Format : AC-3
Format/Info : Audio Coding 3
Mode extension : CM (complete main)
Codec ID : A_AC3
Duration : 1h 41mn
Bit rate mode : Constant
Bit rate : 448 Kbps
Channel(s) : 6 channels
Channel positions : Front: L C R, Side: L R, LFE
Sampling rate : 48.0 KHz
Bit depth : 16 bits
Compression mode : Lossy
Stream size : 327 MiB (14%)
Language : French
Default : No
Forced : No

Menu
00:00:00.000 : :Chapter 01
00:09:28.125 : :Chapter 02
00:15:58.291 : :Chapter 03
00:25:08.625 : :Chapter 04
00:34:11.333 : :Chapter 05
00:41:47.958 : :Chapter 06
00:49:43.916 : :Chapter 07
00:57:27.208 : :Chapter 08
01:07:58.875 : :Chapter 09
01:15:51.582 : :Chapter 10
01:21:22.332 : :Chapter 11
01:30:30.291 : :Chapter 12
Релиз от: Автор рипа: neni.



Скачать Отдел.13.Diamant.13.(Гайллз.Бэхат).[2009.боевик.триллер.криминал.BDRip-AVC].[MVO]+[Оригинал].torrent без регистрации
Золото ЗОЛОТАЯ РАЗДАЧА! СКАЧАННОЕ НЕ ЗАСЧИТЫВАЕТСЯ! Золото
Дата: Зарегистрирован   [ Тип: внутренний ] Как тут cкачать?
MAGNET ссылка
MAGNET ссылка


Скачать .torrent

12 KB

Статус: проверено DHT
Скачан: торрент - 132 раз, раздача полностью - 25 раз
Размер: 2,22 GB
Оценка:  - (Голосов: 0)
Поблагодарили: 2
Поделиться ссылкой на эту раздачу с друзьями:
В контактеFacebookОдноклассникиTwitterLivejournalМой МирLiveinternet
 

 

rocky

[] 

Ladies and gentlemen, please connect to the film
Дамы и господа, пожалуйста, подключитесь к фильму
.
 
Показать сообщения:    


Вы не можете начинать темы
Вы не можете отвечать на сообщения
Вы не можете редактировать свои сообщения
Вы не можете удалять свои сообщения
Вы не можете голосовать в опросах
Вы не можете прикреплять файлы к сообщениям
Вы можете скачивать файлы