Loading...
Error

Скачать Доктор Блейк / The Doctor Blake Mysteries (сезон 01) (Йен Бэрри, Эндрю Проуз, Деклан Имис) [2013, детектив, PDTVRip] [MVO (Agatha Studdio)] торрент без регистрации

 
Статистика раздачи
Размер:  5,52 GB   |    Скачан:  142 раза
Сидов:  1  [  0 KB/s  ]  
 
Автор Сообщение

МихаНЕзатор

[] 

Название: Доктор Блейк
Оригинальное название: The Doctor Blake Mysteries
Год выпуска: 2013
Страна: Австралия
Жанр: детектив
Режиссёр: Йен Бэрри, Эндрю Проуз, Деклан Имис

В ролях: Крейг МакЛоклен / Craig McLachlan (Doctor Lucien Blake), Надин Гарнер / Nadine Garner (Jean Beazley), Рик Дональд / Rick Donald (Constable Daniel Parks), Cate Wolfe (Mattie O'Brien), Джоэль Тобек / Joel Tobeck (Chief Supt Matthew Lawson), Йен Руни / Ian Rooney (Cec), Тим Поттер / Tim Potter (Gus Hawting), Луиз Сиверсен / Louise Siversen (Rosemary Morrisey)


Описание: Доктор Люсьен Блейк покинул родной городок Балларат ещё молодым. Сейчас он возвращается в него, чтобы унаследовать медицинскую практику своего упокоившегося отца с вызовами на места преступления. В 1959-ом году богатств времён золотой лихорадки, которой он обязан своей роскошной архитектурой, в городе давно нет, но тайны, убийства и обман, остались ещё со времён его былой славы.

Страны: Австралия
Продолжительность: 00:55:00
Перевод: Профессиональный (многоголосый закадровый) Agatha Studdio

Качество: PDTVRip
Формат: AVI
Видео кодек: XviD
Аудио кодек: MP3
Видео: 640x352 (16:9), 25.000 fps, MPEG4 Visual ~ 1 000 Kbps, ~ 0.180 bit/pixel
Аудио 1: RUS - 192 Кб/сек 48 kHz, MPEG Layer 3, 2 ch
Аудио 2: ENG - 192 Кб/сек 48 kHz, MPEG Layer 3, 2 ch

General
Complete name : The.Doctor.Blake.Mysteries.s01e01.avi
Format : AVI
Format/Info : Audio Video Interleave
File size : 543 MiB
Duration : 53mn 40s
Overall bit rate : 1 414 Kbps
Writing application : VirtualDubModRus 1.5.10.2 (build 2542/release)
Writing library : VirtualDubMod build 2542/release

Video
ID : 0
Format : MPEG-4 Visual
Format profile : Advanced Simple@L5
Format settings, BVOP : Yes
Format settings, QPel : No
Format settings, GMC : No warppoints
Format settings, Matrix : Default (H.263)
Muxing mode : Packed bitstream
Codec ID : XVID
Codec ID/Hint : XviD
Duration : 53mn 40s
Bit rate : 1 015 Kbps
Width : 640 pixels
Height : 352 pixels
Display aspect ratio : 16:9
Frame rate : 25.000 fps
Color space : YUV
Chroma subsampling : 4:2:0
Bit depth : 8 bits
Scan type : Progressive
Bits/(Pixel*Frame) : 0.180
Stream size : 390 MiB (72%)
Writing library : XviD 63

Audio #1
ID : 1
Format : MPEG Audio
Format version : Version 1
Format profile : Layer 3
Codec ID : 55
Codec ID/Hint : MP3
Duration : 53mn 40s
Bit rate mode : Constant
Bit rate : 192 Kbps
Channel(s) : 2 channels
Sampling rate : 48.0 KHz
Stream size : 73.7 MiB (14%)
Alignment : Aligned on interleaves
Interleave, duration : 40 ms (1.00 video frame)
Interleave, preload duration : 504 ms

Audio #2
ID : 2
Format : MPEG Audio
Format version : Version 1
Format profile : Layer 3
Codec ID : 55
Codec ID/Hint : MP3
Duration : 53mn 40s
Bit rate mode : Constant
Bit rate : 192 Kbps
Channel(s) : 2 channels
Sampling rate : 48.0 KHz
Stream size : 73.7 MiB (14%)
Alignment : Aligned on interleaves
Interleave, duration : 40 ms (1.00 video frame)
Interleave, preload duration : 504 ms

1.01 Still Waters (01.02.2013)
1.02 The Greater Good (08.02.2013)
1.03 Death of a Travelling Salesman (15.02.2013)
1.04 Brotherly Love (22.02.2013)
1.05 Hearts and Flowers (01.03.2013)
1.06 Эпизод #1.6 (08.03.2013)
1.07 Эпизод #1.7 (15.03.2013)
1.08 A Rush of Blood (22.03.2013)
1.09 Эпизод #1.9 (29.03.2013)
1.10 Эпизод #1.10 (05.04.2013)







Скачать Доктор.Блейк.The.Doctor.Blake.Mysteries.(сезон.01).(Йен.Бэрри.Эндрю.Проуз.Деклан.Имис).[2013.детектив.PDTVRip].[MVO.(Agatha.Studdio)].torrent без регистрации
Золото ЗОЛОТАЯ РАЗДАЧА! СКАЧАННОЕ НЕ ЗАСЧИТЫВАЕТСЯ! Золото
Дата: Зарегистрирован   [ Тип: внутренний ] Как тут cкачать?
MAGNET ссылка
MAGNET ссылка


Скачать .torrent

15 KB

Статус: проверено DHT
Скачан: торрент - 142 раз, раздача полностью - 46 раз
Размер: 5,52 GB
Оценка:  - (Голосов: 0)
Поблагодарили: 0
Поделиться ссылкой на эту раздачу с друзьями:
В контактеFacebookОдноклассникиTwitterLivejournalМой МирLiveinternet
 

 
Показать сообщения:    


Вы не можете начинать темы
Вы не можете отвечать на сообщения
Вы не можете редактировать свои сообщения
Вы не можете удалять свои сообщения
Вы не можете голосовать в опросах
Вы не можете прикреплять файлы к сообщениям
Вы можете скачивать файлы