Loading...
Error

Скачать Братья Гримм / The Brothers Grimm (Терри Гиллиам) [2005, фэнтези, триллер, комедия, приключения, BDRip-AVC] [Dub]+[DVO]+[AVO]+[Sub] торрент без регистрации

 
Статистика раздачи
Размер:  3,93 GB   |    Скачан:  165 раз
Сидов:  1  [  0 KB/s  ]  
 
Автор Сообщение

Marsianka

[] 

Информация о фильме
Название: Братья Гримм
Оригинальное название: The Brothers Grimm
Год выхода: 2005
Жанр: фэнтези, триллер, комедия, приключения
Режиссер: Терри Гиллиам
В ролях: Мэтт Дэймон, Хит Леджер, Моника Беллуччи, Анна Руст, Джереми Робсон, Петр Ратимец, Барбора Лукесова, Радим Калвода, Мартин Хофманн, Джозеф Пепа Нос, Гарри Гиллиам, Мирослав Таборски, Роджер Эштон-Гриффитс, Марика Сара Прочазкова, Маккензи Крук, Ричард Райдингс, Алена Якобова, Рудольф Пеллар, Дэна Доналова, Петра Доналова, Ханус Бор, Ота Филипп

О фильме:
Давным-давно, жили-были два брата-авантюриста Уилл и Якоб Гримм, которые впоследствии стали знаменитыми сказочниками. Но до того они путешествовали по деревушкам, занимаясь собиранием фольклора и «прогоняя нечисть» за деньги Приезжали в деревню, убеждали жителей, что на их мельнице поселилась ведьма, а потом за вознаграждение успешно «изгоняли» ее. В следующем селе это был тролль под мостом и так далее. Но однажды слава об «экзорцистах» дошла до наполеоновских властей, которые приказали братьям расследовать серию загадочных исчезновений юных девушек в лесу на границе Франции и Германии. Тут-то наши герои и сталкиваются нос к носу с настоящей нечистью злой колдуньей Уиллу и Якобу придется проявить все свои незаурядные способности, ведь в случае неудачи горе-детективов ждет гильотина



Страна: США, Великобритания, Чехия
Студия: Dimension Films, Metro Goldwyn Mayer
Продолжительность: 01:58:28
Перевод: Дублированный, профессиональный (двухголосый закадровый), авторский одноголосый закадровый)

Файл
Кодек: h.264
Качество: BDRip-AVC
Видео: 2834 Кбит/с, 1024x554, 23.976 кадр/с
1: Русский (AC3, 6 ch, 384 Кбит/с) Дублированный
2: Русский (AC3, 6 ch, 384 Кбит/с) Профессиональный двухголосый [Tycoon Studio]
3: Русский (AC3, 6 ch, 384 Кбит/с) Профессиональный двухголосый [Петр Гланц и Инна Королева]
4: Русский (AC3, 6 ch, 384 Кбит/с) Авторский одноголосый [Сергей Визгунов]
5: Английский (AC3, 6 ch, 384 Кбит/с)

Субтитры: Русские, английские

Полное имя : Bratja.Grimm.2005.x264.BDRip.(AVC).0ptimus.mkv
Формат : Matroska
Версия формата : Version 4 / Version 2
Размер файла : 3,93 Гбайт
Продолжительность : 1 ч. 58 м.
Общий поток : 4752 Кбит/сек
Название фильма : Братья Гримм | The Brothers Grimm [2005] -=BDRip (AVC) by 0ptimus=-
Дата кодирования : UTC 2013-04-17 08:09:19
Программа кодирования : mkvmerge v6.1.0 ('Old Devil') built on Mar 2 2013 14:32:37
Библиотека кодирования : libebml v1.3.0 + libmatroska v1.4.0

Видео
Идентификатор : 1
Формат : AVC
Формат/Информация : Advanced Video Codec
Профиль формата : High@L4.1
Параметр CABAC формата : Да
Параметр ReFrames формата : 11 кадров
Идентификатор кодека : V_MPEG4/ISO/AVC
Продолжительность : 1 ч. 58 м.
Битрейт : 2834 Кбит/сек
Ширина : 1024 пикселя
Высота : 554 пикселя
Соотношение сторон : 16:9
Частота кадров : 23,976 кадра/сек
Цветовое пространство : YUV
Субдискретизация насыщенности : 4:2:0
Битовая глубина : 8 бит
Тип развёртки : Прогрессивная
Бит/(Пиксели*Кадры) : 0.208
Размер потока : 2,27 Гбайт (58%)
Заголовок : Rip by 0ptimus
Библиотека кодирования : x264 core 130 r2273 b3065e6
Настройки программы : cabac=1 / ref=11 / deblock=1:-3:-3 / analyse=0x3:0x113 / me=umh / subme=11 / psy=1 / psy_rd=1.00:0.20 / mixed_ref=1 / me_range=32 / chroma_me=1 / trellis=2 / 8x8dct=1 / cqm=0 / deadzone=21,11 / fast_pskip=0 / chroma_qp_offset=-3 / threads=4 / lookahead_threads=1 / sliced_threads=0 / nr=0 / decimate=0 / interlaced=0 / bluray_compat=0 / constrained_intra=0 / bframes=9 / b_pyramid=2 / b_adapt=2 / b_bias=0 / direct=3 / weightb=1 / open_gop=0 / weightp=2 / keyint=240 / keyint_min=23 / scenecut=40 / intra_refresh=0 / rc_lookahead=40 / rc=2pass / mbtree=0 / bitrate=2834 / ratetol=1.0 / qcomp=0.60 / qpmin=0 / qpmax=69 / qpstep=4 / cplxblur=20.0 / qblur=0.5 / vbv_maxrate=50000 / vbv_bufsize=50000 / nal_hrd=none / ip_ratio=1.40 / pb_ratio=1.30 / aq=1:1.00
Язык : English

Аудио #1
Идентификатор : 2
Формат : AC-3
Формат/Информация : Audio Coding 3
Расширение режима : CM (complete main)
Идентификатор кодека : A_AC3
Продолжительность : 1 ч. 58 м.
Вид битрейта : Постоянный
Битрейт : 384 Кбит/сек
Каналы : 6 каналов
Расположение каналов : Front: L C R, Side: L R, LFE
Частота : 48,0 КГц
Битовая глубина : 16 бит
Метод сжатия : С потерями
Размер потока : 325 Мбайт (8%)
Заголовок : Дублированный
Язык : Russian

Аудио #2
Идентификатор : 3
Формат : AC-3
Формат/Информация : Audio Coding 3
Расширение режима : CM (complete main)
Идентификатор кодека : A_AC3
Продолжительность : 1 ч. 58 м.
Вид битрейта : Постоянный
Битрейт : 384 Кбит/сек
Каналы : 6 каналов
Расположение каналов : Front: L C R, Side: L R, LFE
Частота : 48,0 КГц
Битовая глубина : 16 бит
Метод сжатия : С потерями
Размер потока : 325 Мбайт (8%)
Заголовок : Двухголосый закадровый [Tycoon Studio]
Язык : Russian

Аудио #3
Идентификатор : 4
Формат : AC-3
Формат/Информация : Audio Coding 3
Расширение режима : CM (complete main)
Идентификатор кодека : A_AC3
Продолжительность : 1 ч. 58 м.
Вид битрейта : Постоянный
Битрейт : 384 Кбит/сек
Каналы : 6 каналов
Расположение каналов : Front: L C R, Side: L R, LFE
Частота : 48,0 КГц
Битовая глубина : 16 бит
Метод сжатия : С потерями
Размер потока : 325 Мбайт (8%)
Заголовок : Двухголосый закадровый [Петр Гланц и Инна Королева]
Язык : Russian

Аудио #4
Идентификатор : 5
Формат : AC-3
Формат/Информация : Audio Coding 3
Расширение режима : CM (complete main)
Идентификатор кодека : A_AC3
Продолжительность : 1 ч. 58 м.
Вид битрейта : Постоянный
Битрейт : 384 Кбит/сек
Каналы : 6 каналов
Расположение каналов : Front: L C R, Side: L R, LFE
Частота : 48,0 КГц
Битовая глубина : 16 бит
Метод сжатия : С потерями
Размер потока : 325 Мбайт (8%)
Заголовок : Авторский [Сергей Визгунов]
Язык : Russian

Аудио #5
Идентификатор : 6
Формат : AC-3
Формат/Информация : Audio Coding 3
Расширение режима : CM (complete main)
Идентификатор кодека : A_AC3
Продолжительность : 1 ч. 58 м.
Вид битрейта : Постоянный
Битрейт : 384 Кбит/сек
Каналы : 6 каналов
Расположение каналов : Front: L C R, Side: L R, LFE
Частота : 48,0 КГц
Битовая глубина : 16 бит
Метод сжатия : С потерями
Размер потока : 325 Мбайт (8%)
Язык : English

Текст #1
Идентификатор : 7
Формат : UTF-8
Идентификатор кодека : S_TEXT/UTF8
Идентификатор кодека/Информация : UTF-8 Plain Text
Язык : Russian

Текст #2
Идентификатор : 8
Формат : UTF-8
Идентификатор кодека : S_TEXT/UTF8
Идентификатор кодека/Информация : UTF-8 Plain Text
Язык : English

Меню
00:00:00.000 : :The Mill Witch
00:11:21.806 : :Little Red
00:13:18.172 : :He Can't Hold His Liquor!
00:17:52.571 : :The General's Amnesty
00:21:06.139 : :Hans and Greta
00:23:09.388 : :Welcome to Marbaden
00:28:20.031 : :The Trapper
00:31:12.495 : :The Tower in the Forest
00:36:51.459 : :Grandmother Toad
00:40:49.572 : :Demon Horse
00:46:18.400 : :The Forest Attacks
00:52:05.580 : :Torture Chamber
00:57:40.373 : :A Real Live Story
01:06:28.192 : :The Gingerbread Man
01:09:27.413 : :12 Crypts, 11 Girls
01:18:49.933 : :She's Still There
01:21:39.477 : :Burn the Forest
01:26:37.275 : :Angelika Is the Twelfth
01:31:12.008 : :Finish the Story
01:42:46.869 : :The Kiss of True Love
01:48:26.833 : :Happily Ever After
01:50:45.764 : :End Credits

x264 [info]: frame I:1505 Avg QP:15.03 size:119303
x264 [info]: frame P:45580 Avg QP:18.42 size: 30749
x264 [info]: frame B:123339 Avg QP:20.57 size: 7562
Релиз от:



Скачать Братья.Гримм.The.Brothers.Grimm.(Терри.Гиллиам).[2005.фэнтези.триллер.комедия.приключения.BDRip-AVC].[Dub]+[DVO]+[AVO]+[Sub].torrent без регистрации
Золото ЗОЛОТАЯ РАЗДАЧА! СКАЧАННОЕ НЕ ЗАСЧИТЫВАЕТСЯ! Золото
Дата: Зарегистрирован   [ Тип: внутренний ] Как тут cкачать?
MAGNET ссылка
MAGNET ссылка


Скачать .torrent

20 KB

Статус: проверено DHT
Скачан: торрент - 165 раз, раздача полностью - 48 раз
Размер: 3,93 GB
Оценка:  - (Голосов: 0)
Поблагодарили: 1
Поделиться ссылкой на эту раздачу с друзьями:
В контактеFacebookОдноклассникиTwitterLivejournalМой МирLiveinternet
 

 
Показать сообщения:    


Вы не можете начинать темы
Вы не можете отвечать на сообщения
Вы не можете редактировать свои сообщения
Вы не можете удалять свои сообщения
Вы не можете голосовать в опросах
Вы не можете прикреплять файлы к сообщениям
Вы можете скачивать файлы