Loading...
Error

Скачать Чистилище / Purgatory (Ули Эдел) [1999, фэнтези, вестерн, DVDRip] [MVO] торрент без регистрации

 
Статистика раздачи
Размер:  743 MB   |    Скачан:  123 раза
Сидов:  1  [  0 KB/s  ]  
 
Автор Сообщение

Marsianka

[] 

Страна: США
Жанр: фэнтези, вестерн
Год выпуска: 1999

Продолжительность: 01:33:02
Перевод: Профессиональный (многоголосый, закадровый)

Режиссер: Ули Эдел / Uli Edel

В ролях: Сэм Шепард (Sheriff Forrest / Wild Bill Hickock), Эрик Робертс (Blackjack Britton), Рэнди Куэйд (Doc Woods / Doc Holliday), Петер Стормаре (Cavin Guthrie), Брэд Роу (Leo «Sonny» Dillard), Донни Уолберг (Deputy Glen / Billy The Kid), Дж. Д. Саузер (Brooks / Jesse James), Амелия Хайнл (Rose / Betty McCullough), Шеннон Кенни (Dolly Sloan / Ivy), Джон Деннис Джонстон (Lamb / «Lefty» Slade), Саджино Грант (Gatekeeper), Ричард Эдсон (Euripides)
Описание: Между небом и землей, посреди пустыни на Диком Западе находится маленький городок Тихая Гавань. Шериф здесь не носит оружия. Здесь нет тюрьмы. Здесь живут тихие мирные люди. Но присмотритесь к ним поближе, и вы сможете опознать многих из его жителей.
Дикий Билл Хикок, Док Холидэй, Джесси Джеймс, Билли-Кид. Всех их давным-давно убили. И всем им предоставили последний шанс в Чистилище. Спасти свою душу или навеки потерять ее, встретившись с Бандой Блэкджека.


imdb.com: 6.60 (2 083)
Качество: DVDRip | Sample
Исходник: DVD5
Контейнер: AVI
Видео: XviD, 640x480 (4:3), 982 kbps, 25 fps, 0,128 bpp
Аудио: MP3 / 2.0 / 48 kHz / 128 kbps /

General
Complete name : E:My_ripChistilische_1999_DVDRip.745_MVO_[Youtracker].by.Дядя_Лёша.avi
Format : AVI
Format/Info : Audio Video Interleave
File size : 743 MiB
Duration : 1h 33mn
Overall bit rate : 1 116 Kbps
Writing application : VirtualDubMod 1.5.10.3 | www.virtualdub-fr.org || (build 2550/release)
Writing library : VirtualDubMod build 2550/release

Video
ID : 0
Format : MPEG-4 Visual
Format profile : Advanced Simple@L5
Format settings, BVOP : 2
Format settings, QPel : No
Format settings, GMC : No warppoints
Format settings, Matrix : Custom
Codec ID : XVID
Codec ID/Hint : XviD
Duration : 1h 33mn
Bit rate : 982 Kbps
Width : 640 pixels
Height : 480 pixels
Display aspect ratio : 4:3
Frame rate : 25.000 fps
Color space : YUV
Chroma subsampling : 4:2:0
Bit depth : 8 bits
Scan type : Progressive
Compression mode : Lossy
Bits/(Pixel*Frame) : 0.128
Stream size : 654 MiB (88%)
Writing library : XviD 65

Audio
ID : 1
Format : MPEG Audio
Format version : Version 1
Format profile : Layer 3
Codec ID : 55
Codec ID/Hint : MP3
Duration : 1h 30mn
Bit rate mode : Constant
Bit rate : 128 Kbps
Channel(s) : 2 channels
Sampling rate : 48.0 KHz
Compression mode : Lossy
Stream size : 82.9 MiB (11%)
Alignment : Aligned on interleaves
Interleave, duration : 41 ms (1.03 video frame)
Interleave, preload duration : 504 ms
Writing library : LAME3.99r
Encoding settings : -m s -V 4 -q 2 -lowpass 17 -b 128
Раздача от:



Скачать Чистилище.Purgatory.(Ули.Эдел).[1999.фэнтези.вестерн.DVDRip].[MVO].torrent без регистрации
Золото ЗОЛОТАЯ РАЗДАЧА! СКАЧАННОЕ НЕ ЗАСЧИТЫВАЕТСЯ! Золото
Дата: Зарегистрирован   [ Тип: внутренний ] Как тут cкачать?
MAGNET ссылка
MAGNET ссылка


Скачать .torrent

15 KB

Статус: проверено DHT
Скачан: торрент - 123 раз, раздача полностью - 5 раз
Размер: 743 MB
Оценка:  - (Голосов: 0)
Поблагодарили: 2
Поделиться ссылкой на эту раздачу с друзьями:
В контактеFacebookОдноклассникиTwitterLivejournalМой МирLiveinternet
 

 
Показать сообщения:    


Вы не можете начинать темы
Вы не можете отвечать на сообщения
Вы не можете редактировать свои сообщения
Вы не можете удалять свои сообщения
Вы не можете голосовать в опросах
Вы не можете прикреплять файлы к сообщениям
Вы можете скачивать файлы