Loading...
Error

Скачать Во имя отца / In the Name of the Father (Джим Шеридан) [1993, триллер, драма, биография, BDRip-AVC] [MVO]+[AVO]+[Оригинал]+[Sub] торрент без регистрации

 
Статистика раздачи
Размер:  2,18 GB   |    Скачан:  108 раз
Сидов:  1  [  0 KB/s  ]  
 
Автор Сообщение

Marsianka

[] 

Во имя отца / In the Name of the Father (1993) BDRip-AVC

Информация о фильме
Название: Во имя отца
Оригинальное название: In the Name of the Father
Год выхода: 1993
Жанр: триллер, драма, биография
Режиссер: Джим Шеридан

В ролях: Дэниэл Дэй-Льюис, Пит Постлетуэйт, Эмма Томпсон, Джон Линч, Марк Шеппард, Бети Эдни, Фрэнк Харпер, Бритта Смит, Корин Редгрейв, Джерард МакСорли

О фильме: Эта драма основана на реальных событиях истории «Гилфордской четверки». В 1975 году молодой ирландец Джерри Конлон был приговорен английским правосудием к пожизненному заключению за покушение, которое он не совершал. Трое его друзей, его отец, тетя, племянница и племянник также осуждены за соучастие. Адвокат Гэрит Перси пытается добиться пересмотра дела.



Страна: Ирландия, Великобритания
Продолжительность: 02:12:51
Перевод: Профессиональный (многоголосый закадровый), Авторский (одноголосый закадровый) А. Гаврилов, Оригинал (Английский)

Файл
Кодек: x.264
Качество: BDRip-AVC
Видео: 1024x560 (1,85:1), 23.976 fps, 1772 kbps, 0.129 bit/pixel
Аудио #1: 48 kHz, AC3 Dolby Digital, 2/0 (L,R) ch, ~192 kbps (Многоголосый)
Аудио #2: 48 kHz, AC3 Dolby Digital, 2/0 (L,R) ch, ~192 kbps (А. Гаврилов)
Аудио #3: 48 kHz, AC3 Dolby Digital, 2/0 (L,R) ch, ~192 kbps (Оригинал)
Субтитры: Английские (отключаемые)
Сэмпл

&
Общее
Уникальный идентификатор : 233212071712264468986576655429413159367 (0xAF7302DFFD8F8A87B3BB32FF87A0C1C7)
Полное имя : D:In the Name of the Father.1993.BDRip-AVC.mkv
Формат : Matroska
Версия формата : Version 4 / Version 2
Размер файла : 2,18 Гбайт
Продолжительность : 2 ч. 12 м.
Общий поток : 2348 Кбит/сек
Дата кодирования : UTC 2013-04-17 14:04:35
Программа кодирования : mkvmerge v6.1.0 ('Old Devil') built on Mar 2 2013 14:32:37
Библиотека кодирования : libebml v1.3.0 + libmatroska v1.4.0

Видео
Идентификатор : 1
Формат : AVC
Формат/Информация : Advanced Video Codec
Профиль формата : High@L4.1
Параметр CABAC формата : Да
Параметр ReFrames формата : 10 кадров
Идентификатор кодека : V_MPEG4/ISO/AVC
Продолжительность : 2 ч. 12 м.
Битрейт : 1772 Кбит/сек
Ширина : 1024 пикселя
Высота : 560 пикселей
Соотношение сторон : 1,85:1
Режим частоты кадров : Постоянный
Частота кадров : 23,976 кадра/сек
Цветовое пространство : YUV
Субдискретизация насыщенности : 4:2:0
Битовая глубина : 8 бит
Тип развёртки : Прогрессивная
Бит/(Пиксели*Кадры) : 0.129
Размер потока : 1,60 Гбайт (73%)
Библиотека кодирования : x264 core 130 r2273 b3065e6
Настройки программы : cabac=1 / ref=10 / deblock=1:-3:-3 / analyse=0x3:0x133 / me=umh / subme=10 / psy=1 / psy_rd=1.20:0.11 / mixed_ref=1 / me_range=32 / chroma_me=1 / trellis=2 / 8x8dct=1 / cqm=0 / deadzone=21,11 / fast_pskip=0 / chroma_qp_offset=-3 / threads=3 / lookahead_threads=1 / sliced_threads=0 / nr=0 / decimate=1 / interlaced=0 / bluray_compat=0 / constrained_intra=0 / bframes=8 / b_pyramid=2 / b_adapt=2 / b_bias=0 / direct=3 / weightb=1 / open_gop=0 / weightp=2 / keyint=250 / keyint_min=23 / scenecut=40 / intra_refresh=0 / rc_lookahead=50 / rc=2pass / mbtree=1 / bitrate=1772 / ratetol=1.0 / qcomp=0.60 / qpmin=0 / qpmax=69 / qpstep=4 / cplxblur=20.0 / qblur=0.5 / ip_ratio=1.40 / aq=1:1.00
Default : Да
Forced : Нет

Аудио #1
Идентификатор : 2
Формат : AC-3
Формат/Информация : Audio Coding 3
Расширение режима : CM (complete main)
Параметр Endianness формата : Big
Идентификатор кодека : A_AC3
Продолжительность : 2 ч. 12 м.
Вид битрейта : Постоянный
Битрейт : 192 Кбит/сек
Каналы : 2 канала
Расположение каналов : Front: L R
Частота : 48,0 КГц
Битовая глубина : 16 бит
Метод сжатия : С потерями
Размер потока : 182 Мбайт (8%)
Заголовок : Профессиональный (многоголосый закадровый)
Язык : Russian
Default : Да
Forced : Нет

Аудио #2
Идентификатор : 3
Формат : AC-3
Формат/Информация : Audio Coding 3
Профиль формата : Dolby Digital
Расширение режима : CM (complete main)
Параметр Endianness формата : Big
Идентификатор кодека : A_AC3
Продолжительность : 2 ч. 12 м.
Вид битрейта : Постоянный
Битрейт : 192 Кбит/сек
Каналы : 2 канала
Расположение каналов : Front: L R
Частота : 48,0 КГц
Битовая глубина : 16 бит
Метод сжатия : С потерями
Размер потока : 182 Мбайт (8%)
Заголовок : Авторский одноголосый (А. Гаврилов)
Язык : Russian
Default : Нет
Forced : Нет

Аудио #3
Идентификатор : 4
Формат : AC-3
Формат/Информация : Audio Coding 3
Расширение режима : CM (complete main)
Параметр Endianness формата : Big
Идентификатор кодека : A_AC3
Продолжительность : 2 ч. 12 м.
Вид битрейта : Постоянный
Битрейт : 192 Кбит/сек
Каналы : 2 канала
Расположение каналов : Front: L R
Частота : 48,0 КГц
Битовая глубина : 16 бит
Метод сжатия : С потерями
Размер потока : 182 Мбайт (8%)
Заголовок : Оригинал
Язык : English
Default : Нет
Forced : Нет

Текст
Идентификатор : 5
Формат : UTF-8
Идентификатор кодека : S_TEXT/UTF8
Идентификатор кодека/Информация : UTF-8 Plain Text
Язык : English
Default : Да
Forced : Нет



Скачать Во.имя.отца.In.the.Name.of.the.Father.(Джим.Шеридан).[1993.триллер.драма.биография.BDRip-AVC].[MVO]+[AVO]+[Оригинал]+[Sub].torrent без регистрации
Золото ЗОЛОТАЯ РАЗДАЧА! СКАЧАННОЕ НЕ ЗАСЧИТЫВАЕТСЯ! Золото
Дата: Зарегистрирован   [ Тип: внутренний ] Как тут cкачать?
MAGNET ссылка
MAGNET ссылка


Скачать .torrent

11 KB

Статус: проверено DHT
Скачан: торрент - 108 раз, раздача полностью - 12 раз
Размер: 2,18 GB
Оценка:  4 (Голосов: 1)
Поблагодарили: 2
Поделиться ссылкой на эту раздачу с друзьями:
В контактеFacebookОдноклассникиTwitterLivejournalМой МирLiveinternet
 

 
Показать сообщения:    


Вы не можете начинать темы
Вы не можете отвечать на сообщения
Вы не можете редактировать свои сообщения
Вы не можете удалять свои сообщения
Вы не можете голосовать в опросах
Вы не можете прикреплять файлы к сообщениям
Вы можете скачивать файлы