Loading...
Error

Скачать Наемные убийцы / Убийцы / Assassins (Ричард Доннер) [1995, боевик, триллер, драма, криминал, BDRip-AVC] [Dub]x2+[DVO]+[AVO]x5+[Sub] торрент без регистрации

 
Статистика раздачи
Размер:  6,33 GB   |    Скачан:  97 раз
Сидов:  1  [  0 KB/s  ]  
 
Автор Сообщение

Marsianka

[] 

Наемные убийцы / Убийцы / Assassins

Год выпуска: 1995
Страна: США, Франция
Жанр: боевик, триллер, драма, криминал
Продолжительность: 02:12:44
Перевод: Профессиональный (полное дублирование), Профессиональный (двухголосый, закадровый) - НТВ, Профессиональный (полное дублирование) - Варус-Видео, Авторский (одноголосый, закадровый) 5 вариантов
Субтитры: Русские

Режиссер: Ричард Доннер / Richard Donner

В ролях: Сильвестр Сталлоне (Robert Rath,), Антонио Бандерас (Miguel Bain), Джулианна Мур (Electra,), Анатолий Давыдов (Nicolai Tashlinkov), Мьюз Уотсон (Ketcham), Стив Кэхэн(Alan Branch), Келли Роуэн (Jennifer, Electra's Neighbor), Рид Даймонд (Bob), Кай Вулфф (Remy), Керри Скалски (Buyer with Remy)

Описание: Роберт Рэт - лучший киллер в округе, но кодекс чести и чувство долга, что некогда составляли часть его смертельной карьеры, исчезли. Мир, возникший после Холодной войны, переполнен «отморозками». Рэт хочет «завязать».
Другой киллер, Мигель Бэйн, амбициозный молодой человек - напротив желает стать первым в своем деле, и знает, как это сделать: уничтожить Рэта. Действие разворачивается стремительно и непредсказуемо, когда Сильвестр Сталлоне в роли Рэта и Антонио Бандерас в роли Бэйна защищают свою профессиональную честь наемных убийц.
Джулианна Мур играет хитрого хакера, затянутого в жестокую схватку киллерского дуэта.





Качество: BDRip-AVC
Формат: MKV
Видео кодек: H.264
Аудио кодек: AC3
Видео: 1152x648, 3945 Kbps, 23.976 fps
Аудио 1: 48000 Hz, 6 channels, 384 Kbps - дубляж
Аудио 2: 48000 Hz, 2 channels, 192 Kbps - проф. двухголосый (НТВ)
Аудио 3: 48000 Hz, 2 channels, 192 Kbps - дубляж (Варус-Видео)
Аудио 4: 48000 Hz, 6 channels, 448 Kbps - AVO (Гаврилов) отдельно
Аудио 5: 48000 Hz, 6 channels, 448 Kbps - AVO (Живов) отдельно
Аудио 6: 48000 Hz, 2 channels, 192 Kbps - AVO (Визгунов) отдельно
Аудио 7: 48000 Hz, 2 channels, 192 Kbps - AVO (Кашкин) отдельно
Аудио 8: 48000 Hz, 6 channels, 384 Kbps - диктор CDV отдельно
Аудио 9: 48000 Hz, 6 channels, 448 Kbps - ENG отдельно
Format : Matroska
Format version : Version 2
File size : 4.37 GiB
Duration : 2h 12mn
Overall bit rate : 4 707 Kbps
Movie name : Наемные убийцы / Убийцы / Assassins (1995) BDRip-AVC
Encoded date : UTC 2011-08-27 19:26:25
Writing application : mkvmerge v4.9.1 ('Ich will') сборка от Jul 11 2011 23:53:15
Writing library : libebml v1.2.1 + libmatroska v1.1.1
Attachment : Yes

Video
ID : 1
Format : AVC
Format/Info : Advanced Video Codec
Format profile : High@L4.0
Format settings, CABAC : Yes
Format settings, ReFrames : 11 frames
Codec ID : V_MPEG4/ISO/AVC
Duration : 2h 12mn
Bit rate : 3 945 Kbps
Width : 1 152 pixels
Height : 648 pixels
Display aspect ratio : 16:9
Frame rate : 23.976 fps
Color space : YUV
Chroma subsampling : 4:2:0
Bit depth : 8 bits
Scan type : Progressive
Bits/(Pixel*Frame) : 0.220
Stream size : 3.57 GiB (82%)
Writing library : x264 core 116 r2057 0ba8a9c
Encoding settings : cabac=1 / ref=11 / deblock=1:-2:-1 / analyse=0x3:0x113 / me=umh / subme=10 / psy=1 / psy_rd=1.00:0.00 / mixed_ref=1 / me_range=32 / chroma_me=1 / trellis=2 / 8x8dct=1 / cqm=0 / deadzone=21,11 / fast_pskip=0 / chroma_qp_offset=-2 / threads=6 / sliced_threads=0 / nr=0 / decimate=1 / interlaced=0 / bluray_compat=0 / constrained_intra=0 / bframes=10 / b_pyramid=2 / b_adapt=2 / b_bias=0 / direct=1 / weightb=1 / open_gop=0 / weightp=2 / keyint=250 / keyint_min=23 / scenecut=40 / intra_refresh=0 / rc=2pass / mbtree=0 / bitrate=3945 / ratetol=1.0 / qcomp=0.60 / qpmin=0 / qpmax=69 / qpstep=4 / cplxblur=20.0 / qblur=0.5 / ip_ratio=1.40 / pb_ratio=1.30 / aq=1:1.00 / zones=182100,190800,b=0.35
Language : English

Audio #1
ID : 2
Format : AC-3
Format/Info : Audio Coding 3
Mode extension : CM (complete main)
Codec ID : A_AC3
Duration : 2h 12mn
Bit rate mode : Constant
Bit rate : 384 Kbps
Channel(s) : 6 channels
Channel positions : Front: L C R, Side: L R, LFE
Sampling rate : 48.0 KHz
Bit depth : 16 bits
Compression mode : Lossy
Stream size : 365 MiB (8%)
Title : DUB
Language : Russian

Audio #2
ID : 3
Format : AC-3
Format/Info : Audio Coding 3
Mode extension : CM (complete main)
Codec ID : A_AC3
Duration : 2h 12mn
Bit rate mode : Constant
Bit rate : 192 Kbps
Channel(s) : 2 channels
Channel positions : Front: L R
Sampling rate : 48.0 KHz
Bit depth : 16 bits
Compression mode : Lossy
Stream size : 182 MiB (4%)
Title : DVO - NTV
Language : Russian

Audio #3
ID : 4
Format : AC-3
Format/Info : Audio Coding 3
Mode extension : CM (complete main)
Codec ID : A_AC3
Duration : 2h 12mn
Bit rate mode : Constant
Bit rate : 192 Kbps
Channel(s) : 2 channels
Channel positions : Front: L R
Sampling rate : 48.0 KHz
Bit depth : 16 bits
Compression mode : Lossy
Stream size : 182 MiB (4%)
Title : DUB - Varus-Video
Language : Russian

Text #1
ID : 5
Format : UTF-8
Codec ID : S_TEXT/UTF8
Codec ID/Info : UTF-8 Plain Text
Language : Russian

Text #2
ID : 6
Format : UTF-8
Codec ID : S_TEXT/UTF8
Codec ID/Info : UTF-8 Plain Text
Language : English

Menu
00:00:00.000 : en:Marks Past and Present
00:05:35.293 : en:Next Mark
00:10:00.934 : en:Another Assassin
00:14:44.467 : en:Officers Down, Suspect Gone
00:17:39.100 : en:New Wheels
00:19:01.640 : en:Chitchat with a Passenger
00:24:35.015 : en:Reckless Driving
00:30:03.719 : en:Bishop Takes Rook Pawn
00:31:34.184 : en:New Mark
00:34:57.804 : en:A Watchful Eye
00:36:47.414 : en:Furry Mischief
00:37:56.774 : en:The Players Gather
00:44:13.442 : en:Miguel Strikes
00:48:12.473 : en:The Unfinished Mark
00:55:02.216 : en:Death at Close Quarters
00:59:54.925 : en:Birthday Blast
01:03:05.699 : en:Two Nobody's Spending Time Together
01:06:50.506 : en:Contact Reassigned
01:08:38.448 : en:A Way to Make a Million
01:12:37.270 : en:Payoff for Keeps
01:17:07.331 : en:New Arrangements
01:20:52.556 : en:The Desired Mark
01:22:00.499 : en:Memory Hotel
01:27:24.281 : en:The Day of the Dead
01:31:34.989 : en:Cemetery Cat-and-Mouse
01:35:18.004 : en:The Waiting Game
01:41:39.802 : en:Warm and Happy Stories
01:42:59.840 : en:Out of Patience
01:46:12.116 : en:The Lady Takes a Chance
01:47:33.530 : en:Final Chitchat
01:52:24.196 : en:Pulling the Trigger
01:55:42.602 : en:Bullets Among the Ruins
01:57:09.773 : en:Falling Down
01:59:17.984 : en:The Contractor
02:01:53.640 : en:The Correct Mark
02:03:05.712 : en:"No Goodbyes"
02:06:34.879 : en:End Credits



Скачать Наемные.убийцы.Убийцы.Assassins.(Ричард.Доннер).[1995.боевик.триллер.драма.криминал.BDRip-AVC].[Dub]x2+[DVO]+[AVO]x5+[Sub].torrent без регистрации
Золото ЗОЛОТАЯ РАЗДАЧА! СКАЧАННОЕ НЕ ЗАСЧИТЫВАЕТСЯ! Золото
Дата: Зарегистрирован   [ Тип: внутренний ] Как тут cкачать?
MAGNET ссылка
MAGNET ссылка


Скачать .torrent

32 KB

Статус: проверено DHT
Скачан: торрент - 97 раз, раздача полностью - 656 раз
Размер: 6,33 GB
Оценка:  - (Голосов: 0)
Поблагодарили: 1
Поделиться ссылкой на эту раздачу с друзьями:
В контактеFacebookОдноклассникиTwitterLivejournalМой МирLiveinternet
 

 
Показать сообщения:    


Вы не можете начинать темы
Вы не можете отвечать на сообщения
Вы не можете редактировать свои сообщения
Вы не можете удалять свои сообщения
Вы не можете голосовать в опросах
Вы не можете прикреплять файлы к сообщениям
Вы можете скачивать файлы