Loading...
Error

Скачать Семь невест для семи братьев / Seven Brides For Seven Brothers (Стэнли Донен) [1954, мюзикл, драма, мелодрама, комедия, DVDRip] [Dub] торрент без регистрации

 
Статистика раздачи
Размер:  1,38 GB   |    Скачан:  126 раз
Сидов:  1  [  0 KB/s  ]  
 
Автор Сообщение

Marsianka

[] 

Страна: США
Производство: Loew's Inc., Metro-Goldwyn-Mayer (MGM)
Жанр: мюзикл, драма, мелодрама, комедия
Год выпуска: 1954

Продолжительность: 01:41:53

Перевод: Дублированный

Оригинальная аудиодорожка: Нет

Cубтитры: Нет

Режиссер: Стэнли Донен

В ролях: Ховард Кил, Джефф Ричардс, Расс Тэмблин, Томми Ралл, Марк Платт, Мэтт Мэттокс, Жак дАмбуаз, Джейн Пауэлл, Джули Ньюмар, Нэнси Килгас, Бетти Карр, Вирджиния Гибсон, Рута Ли, Норма Доджетт, Йен Вульф, Ховард Петри, Эрл Бартон, Данте ДиПаоло, Келли Браун, Мэтт Мур, Дик Рич, Марджори Вуд

Описание: Семь крепких парней живут среди высоких деревьев дремучего леса Орегоны. Их быт и нравы просты, а о приличных манерах и как себя нужно вести в обществе они вообще не слышали. Однажды старший из братьев - Адам приводит в их "холостяцкую берлогу" свою очаровательную невесту.



Исходник: DVD9 R5

Тип релиза: DVDRip

Контейнер: AVI

Видео: 720x304 (2.37:1), 29.970 fps, DivX ~1727 kbps avg, 0.26 bit/pixel
Аудио: 48 kHz, AC3 2.0 ~192.00 kbps avg

Релиз:
Общее
Полное имя : D:1АААSem.nevest.dlja.semi.bratiev.avi
Формат : AVI
Формат/Информация : Audio Video Interleave
Размер файла : 1,38 Гбайт
Продолжительность : 1 ч. 41 м.
Общий поток : 1931 Кбит/сек
Библиотека кодирования : VirtualDub build 32842/release

Видео
Идентификатор : 0
Формат : MPEG-4 Visual
Параметр BVOP формата : 1
Параметр QPel формата : Нет
Параметр GMC формата : Без точки перехода
Параметр матрицы формата : Default (H.263)
Режим смешивания : Сжатый битовый поток
Идентификатор кодека : DX50
Идентификатор кодека/Подсказка : DivX 5
Продолжительность : 1 ч. 41 м.
Битрейт : 1727 Кбит/сек
Ширина : 720 пикселей
Высота : 304 пикселя
Соотношение сторон : 2,35:1
Частота кадров : 29,970 кадров/сек
Цветовое пространство : YUV
Субдискретизация насыщенности : 4:2:0
Битовая глубина : 8 бит
Тип развёртки : Прогрессивная
Метод сжатия : С потерями
Бит/(Пиксели*Кадры) : 0.263
Размер потока : 1,23 Гбайт (89%)
Библиотека кодирования : DivX 6.8.5 (UTC 2009-08-20)

Аудио
Идентификатор : 1
Формат : AC-3
Формат/Информация : Audio Coding 3
Расширение режима : CM (complete main)
Параметр Endianness формата : Big
Идентификатор кодека : 2000
Продолжительность : 1 ч. 41 м.
Вид битрейта : Постоянный
Битрейт : 192 Кбит/сек
Каналы : 2 канала
Расположение каналов : Front: L R
Частота : 48,0 КГц
Битовая глубина : 16 бит
Метод сжатия : С потерями
Размер потока : 140 Мбайт (10%)
Выравнивание : Соединение по промежуткам
Продолжительность промежутка : 33 мс. (1,00 видеокадр)
Время предзагрузки промежутка : 512 мс.



Скачать Семь.невест.для.семи.братьев.Seven.Brides.For.Seven.Brothers.(Стэнли.Донен).[1954.мюзикл.драма.мелодрама.комедия.DVDRip].[Dub].torrent без регистрации
Золото ЗОЛОТАЯ РАЗДАЧА! СКАЧАННОЕ НЕ ЗАСЧИТЫВАЕТСЯ! Золото
Дата: Зарегистрирован   [ Тип: внутренний ] Как тут cкачать?
MAGNET ссылка
MAGNET ссылка


Скачать .torrent

14 KB

Статус: проверено DHT
Скачан: торрент - 126 раз, раздача полностью - 67 раз
Размер: 1,38 GB
Оценка:  - (Голосов: 0)
Поблагодарили: 1
Поделиться ссылкой на эту раздачу с друзьями:
В контактеFacebookОдноклассникиTwitterLivejournalМой МирLiveinternet
 

 
Показать сообщения:    


Вы не можете начинать темы
Вы не можете отвечать на сообщения
Вы не можете редактировать свои сообщения
Вы не можете удалять свои сообщения
Вы не можете голосовать в опросах
Вы не можете прикреплять файлы к сообщениям
Вы можете скачивать файлы