Loading...
Error

Скачать Рискованный бизнес / Risky Business (Пол Брикман) [1983, драма, комедия, BDRip-AVC] [MVO]+[AVO] торрент без регистрации

 
Статистика раздачи
Размер:  2,04 GB   |    Скачан:  90 раз
Сидов:  1  [  0 KB/s  ]  
 
Автор Сообщение

Marsianka

[] 

Информация о фильме
Название: Рискованный бизнес
Оригинальное название: Risky Business
Год выхода: 1983
Жанр: драма, комедия
Режиссер: Пол Брикман
В ролях: Том Круз, Ребекка Де Морнэй, Джо Пантольяно, Ричард Мейсер, Бронсон Пинчот, Кертис Армстронг, Николас Прайор, Джанет Кэрролл, Шера Данезе, Рафаэль Сбардж

О фильме:
Познакомьтесь: Джоул Гудсен. 17-летний студент колледжа. Примерный, ответственный, он был паинькой слишком долго. Пришла пора перемен. Родители Джоула собираются в отпуск и оставляют его присматривать за домом. Они доверяют ему. и напрасно. Мечта каждого подростка кошмар для его родителей. Не успеют родители Джоула ступить на борт самолета, как он начнет действовать.



Страна: США, The Geffen Company
Продолжительность: 01:39:08
Перевод: Профессиональный многоголосый, авторский одноголосый
Дата релиза: 20.04.2013

Файл
Кодек: H.264
Качество: BDRip (AVC) (Blu-Ray Remux (1080p))
Видео: MPEG-4 AVC, 2299 Кбит/с, 1024x426
Аудио 1: Русский (AC3, 2 ch, 192 Кбит/с) - Многоголосый закадровый (ТНТ)
Аудио 2: Русский (AC3, 6 ch, 448 Кбит/с) - Авторский одноголосый (Алексей Михалёв)
Общее
Уникальный идентификатор : 199665890222849259235065711758009642971 (0x9636406E72820797B972124A6F672FDB)
Полное имя : D:2Riskovannyj.biznes.1983.x264.BDRip.(AVC).ExKinoRay.mkv
Формат : Matroska
Размер файла : 2,04 Гбайт
Продолжительность : 1 ч. 39 м.
Общий поток : 2940 Кбит/сек
Название фильма : Riskovannyj.biznes.1983.x264.BDRip.(AVC).ExKinoRay
Дата кодирования : UTC 2013-04-19 20:57:28
Программа кодирования : mkvmerge v4.0.0 ('The Stars were mine') сборка от Jun 6 2010 16:18:42
Библиотека кодирования : libebml v1.0.0 + libmatroska v1.0.0

Видео
Идентификатор : 1
Формат : AVC
Формат/Информация : Advanced Video Codec
Профиль формата : High@L4.1
Параметр CABAC формата : Да
Параметр ReFrames формата : 10 кадров
Идентификатор кодека : V_MPEG4/ISO/AVC
Продолжительность : 1 ч. 39 м.
Битрейт : 2299 Кбит/сек
Ширина : 1024 пикс.
Высота : 576 пикс.
Соотношение сторон : 16:9
Частота кадров : 23,976 кадр/сек
Цветовое пространство : YUV
Подвыборка цветности : 4:2:0
Битовая глубина : 8 бит
Тип развёртки : Прогрессивная
Бит/(Пиксели*Кадры) : 0.163
Размер потока : 1,55 Гбайт (76%)
Заголовок : Rip by Enigma-Vladislav71
Библиотека кодирования : x264 core 129 r2245 bc13772
Настройки программы : cabac=1 / ref=10 / deblock=1:-3:-3 / analyse=0x3:0x133 / me=umh / subme=11 / psy=1 / psy_rd=1.00:0.00 / mixed_ref=1 / me_range=48 / chroma_me=1 / trellis=2 / 8x8dct=1 / cqm=0 / deadzone=21,11 / fast_pskip=0 / chroma_qp_offset=-2 / threads=3 / lookahead_threads=1 / sliced_threads=0 / nr=0 / decimate=0 / interlaced=0 / bluray_compat=0 / constrained_intra=0 / bframes=8 / b_pyramid=2 / b_adapt=2 / b_bias=0 / direct=3 / weightb=1 / open_gop=0 / weightp=2 / keyint=240 / keyint_min=23 / scenecut=40 / intra_refresh=0 / rc_lookahead=40 / rc=2pass / mbtree=1 / bitrate=2299 / ratetol=1.0 / qcomp=0.60 / qpmin=10 / qpmax=51 / qpstep=4 / cplxblur=20.0 / qblur=0.5 / ip_ratio=1.40 / aq=2:1.00
Язык : English

Аудио #1
Идентификатор : 2
Формат : AC-3
Формат/Информация : Audio Coding 3
Расширение режима : CM (complete main)
Идентификатор кодека : A_AC3
Продолжительность : 1 ч. 39 м.
Вид битрейта : Постоянный
Битрейт : 192 Кбит/сек
Каналы : 2 канала
Расположение каналов : Front: L R
Частота : 48,0 КГц
Битовая глубина : 16 бит
Метод сжатия : С потерями
Размер потока : 136 Мбайт (7%)
Заголовок : Многоголосый закадровый (ТНТ)
Язык : Russian

Аудио #2
Идентификатор : 3
Формат : AC-3
Формат/Информация : Audio Coding 3
Расширение режима : CM (complete main)
Идентификатор кодека : A_AC3
Продолжительность : 1 ч. 39 м.
Вид битрейта : Постоянный
Битрейт : 448 Кбит/сек
Каналы : 6 каналов
Расположение каналов : Front: L C R, Side: L R, LFE
Частота : 48,0 КГц
Битовая глубина : 16 бит
Метод сжатия : С потерями
Размер потока : 318 Мбайт (15%)
Заголовок : Авторский одноголосый (Алексей Михалёв)
Язык : Russian

Меню
00:00:00.000 : en:Chapter 01
00:01:39.933 : en:Chapter 02
00:04:29.435 : en:Chapter 03
00:07:48.843 : en:Chapter 04
00:10:01.058 : en:Chapter 05
00:11:45.830 : en:Chapter 06
00:15:10.367 : en:Chapter 07
00:17:13.782 : en:Chapter 08
00:20:03.410 : en:Chapter 09
00:23:20.816 : en:Chapter 10
00:24:44.399 : en:Chapter 11
00:27:05.915 : en:Chapter 12
00:30:00.048 : en:Chapter 13
00:34:39.285 : en:Chapter 14
00:39:55.142 : en:Chapter 15
00:46:10.100 : en:Chapter 16
00:48:19.062 : en:Chapter 17
00:51:48.480 : en:Chapter 18
00:54:06.952 : en:Chapter 19
00:59:09.170 : en:Chapter 20
00:59:58.595 : en:Chapter 21
01:04:50.094 : en:Chapter 22
01:08:30.648 : en:Chapter 23
01:09:30.249 : en:Chapter 24
01:15:02.372 : en:Chapter 25
01:18:05.138 : en:Chapter 26
01:23:08.024 : en:Chapter 27
01:26:38.902 : en:Chapter 28
01:29:30.531 : en:Chapter 29
01:31:39.827 : en:Chapter 30
01:33:29.020 : en:Chapter 31
01:35:54.081 : en:Chapter 32
01:39:08.734 : en:Chapter 33
Семпл Релиз от:

Авторы релиза:



Скачать Рискованный.бизнес.Risky.Business.(Пол.Брикман).[1983.драма.комедия.BDRip-AVC].[MVO]+[AVO].torrent без регистрации
Золото ЗОЛОТАЯ РАЗДАЧА! СКАЧАННОЕ НЕ ЗАСЧИТЫВАЕТСЯ! Золото
Дата: Зарегистрирован   [ Тип: внутренний ] Как тут cкачать?
MAGNET ссылка
MAGNET ссылка


Скачать .torrent

11 KB

Статус: проверено DHT
Скачан: торрент - 90 раз, раздача полностью - 55 раз
Размер: 2,04 GB
Оценка:  - (Голосов: 0)
Поблагодарили: 2
Поделиться ссылкой на эту раздачу с друзьями:
В контактеFacebookОдноклассникиTwitterLivejournalМой МирLiveinternet
 

 
Показать сообщения:    


Вы не можете начинать темы
Вы не можете отвечать на сообщения
Вы не можете редактировать свои сообщения
Вы не можете удалять свои сообщения
Вы не можете голосовать в опросах
Вы не можете прикреплять файлы к сообщениям
Вы можете скачивать файлы