Loading...
Error

Скачать Исчезающая Точка / Vanishing Point (Ричард С. Сарафьян) [1971, боевик, драма, HDRip-AVC] [MVO]+[VO]+[AVO]+[Sub] торрент без регистрации

 
Статистика раздачи
Размер:  2,26 GB   |    Скачан:  104 раза

Полного источника не было: 25 минут

 
Автор Сообщение

Marsianka

[] 

Информация о фильме
Название: Исчезающая Точка
Оригинальное название: Vanishing Point
Год выхода: 1971
Жанр: боевик, драма
Режиссер: Ричард С. Сарафьян
В ролях: Барри Ньюман, Кливон Литтл, Дин Джаггер, Пол Косло, Роберт Доннер, Тимоти Скотт, Энтони Джеймс, Артур Мэйлет, Карл Свенсон, Ли Уивер, Том Рис, Оуэн Буш, Джон Эймос

О фильме:
Зарабатывая на жизнь перегоном машин из города в город, Ковальски получает очередное задание доставить белый «Додж Челленджер» в Сан-Франциско из Денвера. Когда его пытаются остановить полицейские по неясной причине, Ковальски демонстративно отказывается подчиняться властям и упорно уходит от преследования, следя лишь за тем, чтобы никто из гонящихся за ним полицейских не погиб



Страна: США, Великобритания
Продолжительность: 01:38:45
Перевод: Профессиональный многоголосый, профессиональный одноголосый, авторский одноголосый
Субтитры: Русские
Дата релиза: 21.04.2013

Файл
Кодек: H.264
Качество: HDRip-AVC
Видео: MPEG-4 AVC, 1999 Кбит/с, 1024x556
Звук:
Аудио 1: Русский (AC3, 2 ch, 192 Кбит/с) - Профессиональный многоголосый
Аудио 2: Русский (AC3, 6 ch, 448 Кбит/с) - Одноголосый (Александр Дасевич)
Аудио 3: Русский (AC3, 2 ch, 192 Кбит/с) - Авторский одноголосый (Григорий Либергал)
Аудио 4: Английский (AC3, 6 ch, 448 Кбит/с)
Общее
Уникальный идентификатор : 177430999805913085034253452695468140095 (0x857BF7B1F04751F6ACDBD56DD826663F)
Полное имя : D:2Ischezayshay.tochka.1971.x264.HDRip.(AVC).ExKinoRay.mkv
Формат : Matroska
Размер файла : 2,26 Гбайт
Продолжительность : 1 ч. 45 м.
Общий поток : 3068 Кбит/сек
Название фильма : Ischezayshay.tochka.1971.x264.HDRip.(AVC).ExKinoRay
Дата кодирования : UTC 2013-04-21 12:34:37
Программа кодирования : mkvmerge v4.0.0 ('The Stars were mine') сборка от Jun 6 2010 16:18:42
Библиотека кодирования : libebml v1.0.0 + libmatroska v1.0.0

Видео
Идентификатор : 1
Формат : AVC
Формат/Информация : Advanced Video Codec
Профиль формата : High@L4.1
Параметр CABAC формата : Да
Параметр ReFrames формата : 10 кадров
Идентификатор кодека : V_MPEG4/ISO/AVC
Продолжительность : 1 ч. 45 м.
Битрейт : 1727 Кбит/сек
Номинальный битрейт : 1999 Кбит/сек
Ширина : 1024 пикс.
Высота : 556 пикс.
Соотношение сторон : 16:9
Частота кадров : 23,976 кадр/сек
Цветовое пространство : YUV
Подвыборка цветности : 4:2:0
Битовая глубина : 8 бит
Тип развёртки : Прогрессивная
Бит/(Пиксели*Кадры) : 0.126
Размер потока : 1,27 Гбайт (56%)
Заголовок : Rip by Enigma-Vladislav71
Библиотека кодирования : x264 core 129 r2245 bc13772
Настройки программы : cabac=1 / ref=10 / deblock=1:-3:-3 / analyse=0x3:0x133 / me=umh / subme=11 / psy=1 / psy_rd=1.00:0.00 / mixed_ref=1 / me_range=48 / chroma_me=1 / trellis=2 / 8x8dct=1 / cqm=0 / deadzone=21,11 / fast_pskip=0 / chroma_qp_offset=-2 / threads=3 / lookahead_threads=1 / sliced_threads=0 / nr=0 / decimate=0 / interlaced=0 / bluray_compat=0 / constrained_intra=0 / bframes=8 / b_pyramid=2 / b_adapt=2 / b_bias=0 / direct=3 / weightb=1 / open_gop=0 / weightp=2 / keyint=240 / keyint_min=23 / scenecut=40 / intra_refresh=0 / rc_lookahead=40 / rc=2pass / mbtree=1 / bitrate=1999 / ratetol=1.0 / qcomp=0.60 / qpmin=10 / qpmax=51 / qpstep=4 / cplxblur=20.0 / qblur=0.5 / ip_ratio=1.40 / aq=2:1.00
Язык : English

Аудио #1
Идентификатор : 2
Формат : AC-3
Формат/Информация : Audio Coding 3
Расширение режима : CM (complete main)
Идентификатор кодека : A_AC3
Продолжительность : 1 ч. 45 м.
Вид битрейта : Постоянный
Битрейт : 192 Кбит/сек
Каналы : 2 канала
Расположение каналов : Front: L R
Частота : 48,0 КГц
Битовая глубина : 16 бит
Метод сжатия : С потерями
Размер потока : 145 Мбайт (6%)
Заголовок : Профессиональный многоголосый
Язык : Russian

Аудио #2
Идентификатор : 3
Формат : AC-3
Формат/Информация : Audio Coding 3
Расширение режима : CM (complete main)
Идентификатор кодека : A_AC3
Продолжительность : 1 ч. 45 м.
Вид битрейта : Постоянный
Битрейт : 448 Кбит/сек
Каналы : 6 каналов
Расположение каналов : Front: L C R, Side: L R, LFE
Частота : 48,0 КГц
Битовая глубина : 16 бит
Метод сжатия : С потерями
Размер потока : 338 Мбайт (15%)
Заголовок : Одноголосый (Александр Дасевич)
Язык : Russian

Аудио #3
Идентификатор : 4
Формат : AC-3
Формат/Информация : Audio Coding 3
Расширение режима : CM (complete main)
Идентификатор кодека : A_AC3
Продолжительность : 1 ч. 45 м.
Вид битрейта : Постоянный
Битрейт : 192 Кбит/сек
Каналы : 2 канала
Расположение каналов : Front: L R
Частота : 48,0 КГц
Битовая глубина : 16 бит
Метод сжатия : С потерями
Размер потока : 145 Мбайт (6%)
Заголовок : Авторский одноголосый (Григорий Либергал)
Язык : Russian

Аудио #4
Идентификатор : 5
Формат : AC-3
Формат/Информация : Audio Coding 3
Расширение режима : CM (complete main)
Идентификатор кодека : A_AC3
Продолжительность : 1 ч. 45 м.
Вид битрейта : Постоянный
Битрейт : 448 Кбит/сек
Каналы : 6 каналов
Расположение каналов : Front: L C R, Side: L R, LFE
Частота : 48,0 КГц
Битовая глубина : 16 бит
Метод сжатия : С потерями
Размер потока : 338 Мбайт (15%)
Заголовок : Английский
Язык : English

Текст
Идентификатор : 6
Формат : UTF-8
Идентификатор кодека : S_TEXT/UTF8
Идентификатор кодека/Информация : UTF-8 Plain Text
Язык : Russian

Меню
00:00:00.000 : en:Chapter 01
00:02:00.995 : en:Chapter 02
00:09:35.408 : en:Chapter 03
00:13:50.246 : en:Chapter 04
00:15:57.456 : en:Chapter 05
00:20:56.004 : en:Chapter 06
00:26:03.895 : en:Chapter 07
00:29:42.238 : en:Chapter 08
00:32:53.471 : en:Chapter 09
00:35:22.620 : en:Chapter 10
00:38:20.464 : en:Chapter 11
00:44:57.027 : en:Chapter 12
00:47:38.981 : en:Chapter 13
00:50:59.764 : en:Chapter 14
00:56:01.566 : en:Chapter 15
00:59:02.038 : en:Chapter 16
01:02:03.761 : en:Chapter 17
01:09:27.746 : en:Chapter 18
01:12:24.381 : en:Chapter 19
01:14:33.260 : en:Chapter 20
01:16:10.982 : en:Chapter 21
01:19:04.865 : en:Chapter 22
01:21:25.672 : en:Chapter 23
01:24:11.713 : en:Chapter 24
01:28:29.137 : en:Chapter 25
01:29:55.515 : en:Chapter 26
01:33:28.394 : en:Chapter 27
01:37:24.672 : en:Chapter 28
01:38:44.918 : en:Chapter 29
Семпл Релиз от:

Авторы релиза:



Скачать Исчезающая.Точка.Vanishing.Point.(Ричард.С.Сарафьян).[1971.боевик.драма.HDRip-AVC].[MVO]+[VO]+[AVO]+[Sub].torrent без регистрации
Золото ЗОЛОТАЯ РАЗДАЧА! СКАЧАННОЕ НЕ ЗАСЧИТЫВАЕТСЯ! Золото
Дата: Зарегистрирован   [ Тип: внутренний ] Как тут cкачать?
MAGNET ссылка
MAGNET ссылка


Скачать .torrent

12 KB

Статус: проверено DHT
Скачан: торрент - 104 раз, раздача полностью - 43 раз
Размер: 2,26 GB
Оценка:  5 (Голосов: 1)
Поблагодарили: 1
Поделиться ссылкой на эту раздачу с друзьями:
В контактеFacebookОдноклассникиTwitterLivejournalМой МирLiveinternet
 

 
Показать сообщения:    


Вы не можете начинать темы
Вы не можете отвечать на сообщения
Вы не можете редактировать свои сообщения
Вы не можете удалять свои сообщения
Вы не можете голосовать в опросах
Вы не можете прикреплять файлы к сообщениям
Вы можете скачивать файлы