Loading...
Error

Скачать Кара небесная / Подмена / Switch (Блейк Эдвардс / Blake Edwards) [1991, комедия, DVDRip-AVC] [DVO] + [AVO] (Алексей Михалёв) + [AVO] (Василий Горчаков) торрент без регистрации

 
Статистика раздачи
Размер:  1,58 GB   |    Скачан:  120 раз
Сидов:  1  [  0 KB/s  ]  
 
Автор Сообщение

leon030982

[] 


Кара небесная / Switch



Год выпуска: 1991
Выпущено: США
Жанр: комедия
Продолжительность: 01:43:09
Перевод 1: Профессиональный (двухголосый закадровый) [НТВ+]
Перевод 2: Авторский (одноголосый закадровый)[Алексей Михалёв]
Перевод 3: Авторский (одноголосый закадровый)[Василий Горчаков]

Субтитры: русские

Режиссер: Блейк Эдвардс / Blake Edwards

В ролях: Эллен Баркин, Джимми Смитс, ДжоБет Уильямс, Лоррейн Бракко, Тони Робертс, Перри Кинг, Брюс Пэйн, Лизетт Энтони, Виктория Махони, Бэзил Хоффман.

Описание: Стив Брукс, сердцеед и соблазнитель женщин, отправляясь на очередную вечеринку, не знал, что погибнет от рук своих любимиц и на следующий день превратится в эффектную блондинку. Теперь, чтобы не попасть в Ад, он должен понравиться хотя бы одному человеку… точнее, хотя бы одной женщине.



Качество: DVDRip-AVC
Формат: MKV
Видео кодек: AVC
Аудио кодек: AC3
Видео: 716x360 (2.35:1) @ 842x360, 23.976 fps, AVC, ~1424 Kbps, 0.230 bits/pixel
Аудио 1: Russian, 48.0 KHz, AC3, 2 ch, 192 Kbps - [НТВ+]
Аудио 2: Russian, 48.0 KHz, AC3, 2 ch, 192 Kbps - [Алексей Михалёв]
Аудио 3: Russian, 48.0 KHz, AC3, 2 ch, 192 Kbps - [Василий Горчаков]
Аудио 4: English, 48.0 KHz, AC3, 2 ch, 192 Kbps - [отдельным файлом]

General
Unique ID : 200139894661598202397378253134419941856 (0x96918AA793CF3C0B86B3A1479E9B59E0)
Complete name : D:\Switch.mkv
Format : Matroska
Format version : Version 2
File size : 1.44 GiB
Duration : 1h 43mn
Overall bit rate : 2 002 Kbps
Encoded date : UTC 2012-12-02 14:18:17
Writing application : mkvmerge v5.8.0 ('No Sleep / Pillow') built on Sep 2 2012 15:37:04
Writing library : libebml v1.2.3 + libmatroska v1.3.0

Video
ID : 1
Format : AVC
Format/Info : Advanced Video Codec
Format profile : High@L4.1
Format settings, CABAC : Yes
Format settings, ReFrames : 8 frames
Codec ID : V_MPEG4/ISO/AVC
Duration : 1h 43mn
Bit rate : 1 424 Kbps
Width : 716 pixels
Height : 360 pixels
Display aspect ratio : 2.35:1
Original display aspect ratio : 2.35:1
Frame rate mode : Constant
Frame rate : 23.976 fps
Color space : YUV
Chroma subsampling : 4:2:0
Bit depth : 8 bits
Scan type : Progressive
Bits/(Pixel*Frame) : 0.230
Stream size : 1 023 MiB (69%)
Writing library : x264 core 128 r2216 198a7ea
Encoding settings : cabac=1 / ref=8 / deblock=1:-1:-1 / analyse=0x3:0x133 / me=umh / subme=9 / psy=1 / psy_rd=1.00:0.10 / mixed_ref=1 / me_range=32 / chroma_me=1 / trellis=2 / 8x8dct=1 / cqm=0 / deadzone=21,11 / fast_pskip=0 / chroma_qp_offset=-3 / threads=3 / lookahead_threads=1 / sliced_threads=0 / nr=0 / decimate=1 / interlaced=0 / bluray_compat=0 / constrained_intra=0 / bframes=3 / b_pyramid=2 / b_adapt=2 / b_bias=0 / direct=3 / weightb=1 / open_gop=0 / weightp=2 / keyint=250 / keyint_min=23 / scenecut=40 / intra_refresh=0 / rc_lookahead=50 / rc=2pass / mbtree=1 / bitrate=1424 / ratetol=1.0 / qcomp=0.60 / qpmin=0 / qpmax=69 / qpstep=4 / cplxblur=20.0 / qblur=0.5 / ip_ratio=1.40 / aq=1:1.00
Default : Yes
Forced : No

Audio #1
ID : 2
Format : AC-3
Format/Info : Audio Coding 3
Mode extension : CM (complete main)
Format settings, Endianness : Big
Codec ID : A_AC3
Duration : 1h 43mn
Bit rate mode : Constant
Bit rate : 192 Kbps
Channel(s) : 2 channels
Channel positions : Front: L R
Sampling rate : 48.0 KHz
Bit depth : 16 bits
Compression mode : Lossy
Stream size : 142 MiB (10%)
Title : НТВ+
Language : Russian
Default : Yes
Forced : No

Audio #2
ID : 3
Format : AC-3
Format/Info : Audio Coding 3
Format profile : Dolby Digital
Mode extension : CM (complete main)
Format settings, Endianness : Big
Codec ID : A_AC3
Duration : 1h 43mn
Bit rate mode : Constant
Bit rate : 192 Kbps
Channel(s) : 2 channels
Channel positions : Front: L R
Sampling rate : 48.0 KHz
Bit depth : 16 bits
Compression mode : Lossy
Stream size : 142 MiB (10%)
Title : Алексей Михалёв
Language : Russian
Default : No
Forced : No

Audio #3
ID : 4
Format : AC-3
Format/Info : Audio Coding 3
Mode extension : CM (complete main)
Format settings, Endianness : Big
Codec ID : A_AC3
Duration : 1h 43mn
Bit rate mode : Constant
Bit rate : 192 Kbps
Channel(s) : 2 channels
Channel positions : Front: L R
Sampling rate : 48.0 KHz
Bit depth : 16 bits
Compression mode : Lossy
Stream size : 142 MiB (10%)
Title : Василий Горчаков
Language : Russian
Default : No
Forced : No

Text #1
ID : 5
Format : UTF-8
Codec ID : S_TEXT/UTF8
Codec ID/Info : UTF-8 Plain Text
Language : Russian
Default : Yes
Forced : No

Text #2
ID : 6
Format : UTF-8
Codec ID : S_TEXT/UTF8
Codec ID/Info : UTF-8 Plain Text
Language : English
Default : No
Forced : No

Menu
00:02:08.534 : :Chapter 02
00:07:35.268 : :Chapter 03
00:09:05.468 : :Chapter 04
00:18:37.069 : :Chapter 05
00:21:16.569 : :Chapter 06
00:24:53.702 : :Chapter 07
00:30:28.202 : :Chapter 08
00:37:03.869 : :Chapter 09
00:42:18.869 : :Chapter 10
00:50:25.603 : :Chapter 11
00:58:53.903 : :Chapter 12
01:03:09.036 : :Chapter 13
01:08:22.303 : :Chapter 14
01:11:55.637 : :Chapter 15
01:15:52.471 : :Chapter 16
01:18:40.305 : :Chapter 17
01:25:56.805 : :Chapter 18
01:34:14.439 : :Chapter 19
01:39:14.773 : :Chapter 20





Скачать Кара.небесная.Подмена.Switch.(Блейк.Эдвардс.Blake.Edwards).[1991.комедия.DVDRip-AVC].[DVO].+.[AVO].(Алексей.Михалёв).+.[AVO].(Василий.Горчаков).torrent без регистрации
Золото ЗОЛОТАЯ РАЗДАЧА! СКАЧАННОЕ НЕ ЗАСЧИТЫВАЕТСЯ! Золото
Дата: Зарегистрирован   [ Тип: внутренний ] Как тут cкачать?
MAGNET ссылка
MAGNET ссылка


Скачать .torrent

16 KB

Статус: проверено DHT
Скачан: торрент - 120 раз, раздача полностью - 11 раз
Размер: 1,58 GB
Оценка:  5 (Голосов: 1)
Поблагодарили: 1
Поделиться ссылкой на эту раздачу с друзьями:
В контактеFacebookОдноклассникиTwitterLivejournalМой МирLiveinternet
 

 
Показать сообщения:    


Вы не можете начинать темы
Вы не можете отвечать на сообщения
Вы не можете редактировать свои сообщения
Вы не можете удалять свои сообщения
Вы не можете голосовать в опросах
Вы не можете прикреплять файлы к сообщениям
Вы можете скачивать файлы