Loading...
Error

Скачать Мутанты / Mimic (Гильермо дель Торо) [1997, ужасы, фантастика, BDRip-AVC] [Режиссерская версия] [DVO]+[AVO]x2+[Оригинал]+[Sub] торрент без регистрации

 
Статистика раздачи
Размер:  4,13 GB   |    Скачан:  134 раза
Сидов:  1  [  0 KB/s  ]  
 
Автор Сообщение

Marsianka

[] 

Информация о фильме
Название: Мутанты
Оригинальное название: Mimic
Год выхода: 1997
Жанр: ужасы, фантастика
Режиссер: Гильермо дель Торо
В ролях: Мира Сорвино, Джереми Нортэм, Александр Гудвин, Джанкарло Джаннини, Чарльз С. Даттон, Джош Бролин, Аликс Коромзай, Джеймс Коста, Джейвон Барнвелл, Норман Ридус, Пак-Квон Хо, Гленн Банг, Маргарет Ма, Алан Арге, Чарльз Хэйтер, Джулиан Ричингс, Джеймс Кидни, Ив Инглиш, Даг Джонс

О фильме:
Талантливая исследовательница вместе со свои мужем - сотрудником департамента здравоохранения - остановила страшную эпидемию, которая успела унести многие жизни. Но, используя генную инженерию, она нарушила природный баланс - и природа начинает мстить. Издавна в живой природе жертвы научились принимать облик своих врагов: гусеница походила на змею, крылья бабочки - на глаза совы... Но теперь Нечто начинает имитировать самого опасного охотника - человека, и последний сам становится дичью. Остановить злодейское Нечто могут только двое людей, которые вызвали его к жизни...



Страна: США, Dimension Films, Miramax Films
Продолжительность: 01:51:44
Перевод: Профессиональный двухголосый, авторский одноголосый
Субтитры: Русские, английские
Дата релиза: 21.04.2013

Файл
Кодек: H.264
Качество: BDRip (AVC)
Видео: MPEG-4 AVC, 3500 Кбит/с, 1024x556
Аудио 1: Русский (AC3, 6 ch, 448 Кбит/с) - Профессиональный двухголосый
Аудио 2: Русский (AC3, 6 ch, 448 Кбит/с) - Авторский одноголосый (Горчаков)
Аудио 3: Русский (AC3, 6 ch, 448 Кбит/с) - Авторский одноголосый (Живов)
Аудио 4: Английский (AC3, 6 ch, 448 Кбит/с)
Общее
Уникальный идентификатор : 212722248534042809495667027057461557851 (0xA008D098A09EECAB932B41AAAB8DFA5B)
Полное имя : D:1Mutanty.1997.x264.BDRip.(AVC).ExKinoRay.mkv
Формат : Matroska
Размер файла : 4,13 Гбайт
Продолжительность : 1 ч. 51 м.
Общий поток : 5288 Кбит/сек
Название фильма : Mutanty.1997.x264.BDRip.(AVC).ExKinoRay
Дата кодирования : UTC 2013-04-21 19:50:51
Программа кодирования : mkvmerge v4.0.0 ('The Stars were mine') сборка от Jun 6 2010 16:18:42
Библиотека кодирования : libebml v1.0.0 + libmatroska v1.0.0

Видео
Идентификатор : 1
Формат : AVC
Формат/Информация : Advanced Video Codec
Профиль формата : High@L4.1
Параметр CABAC формата : Да
Параметр ReFrames формата : 8 кадров
Идентификатор кодека : V_MPEG4/ISO/AVC
Продолжительность : 1 ч. 51 м.
Битрейт : 3500 Кбит/сек
Ширина : 1024 пикс.
Высота : 556 пикс.
Соотношение сторон : 16:9
Частота кадров : 23,976 кадр/сек
Цветовое пространство : YUV
Подвыборка цветности : 4:2:0
Битовая глубина : 8 бит
Тип развёртки : Прогрессивная
Бит/(Пиксели*Кадры) : 0.256
Размер потока : 2,65 Гбайт (64%)
Заголовок : Rip by Enigma-Vladislav71
Библиотека кодирования : x264 core 92 r1510 33d382a
Настройки программы : cabac=1 / ref=8 / deblock=1:-2:-2 / analyse=0x3:0x133 / me=umh / subme=10 / psy=1 / psy_rd=1.00:0.00 / mixed_ref=1 / me_range=48 / chroma_me=1 / trellis=2 / 8x8dct=1 / cqm=0 / deadzone=21,11 / fast_pskip=0 / chroma_qp_offset=-2 / threads=3 / sliced_threads=0 / nr=0 / decimate=0 / interlaced=0 / constrained_intra=0 / bframes=8 / b_pyramid=2 / b_adapt=2 / b_bias=0 / direct=3 / wpredb=1 / wpredp=2 / keyint=240 / keyint_min=23 / scenecut=40 / intra_refresh=0 / rc=2pass / mbtree=0 / bitrate=3500 / ratetol=1.0 / qcomp=0.60 / qpmin=10 / qpmax=51 / qpstep=4 / cplxblur=20.0 / qblur=0.5 / ip_ratio=1.40 / pb_ratio=1.30 / aq=1:1.00

Аудио #1
Идентификатор : 2
Формат : AC-3
Формат/Информация : Audio Coding 3
Расширение режима : CM (complete main)
Идентификатор кодека : A_AC3
Продолжительность : 1 ч. 51 м.
Вид битрейта : Постоянный
Битрейт : 448 Кбит/сек
Каналы : 6 каналов
Расположение каналов : Front: L C R, Side: L R, LFE
Частота : 48,0 КГц
Битовая глубина : 16 бит
Метод сжатия : С потерями
Размер потока : 358 Мбайт (8%)
Заголовок : Двухголосый закадровый
Язык : Russian

Аудио #2
Идентификатор : 3
Формат : AC-3
Формат/Информация : Audio Coding 3
Расширение режима : CM (complete main)
Идентификатор кодека : A_AC3
Продолжительность : 1 ч. 51 м.
Вид битрейта : Постоянный
Битрейт : 448 Кбит/сек
Каналы : 6 каналов
Расположение каналов : Front: L C R, Side: L R, LFE
Частота : 48,0 КГц
Битовая глубина : 16 бит
Метод сжатия : С потерями
Размер потока : 358 Мбайт (8%)
Заголовок : Одноголосый закадровый, В.Горчаков
Язык : Russian

Аудио #3
Идентификатор : 4
Формат : AC-3
Формат/Информация : Audio Coding 3
Расширение режима : CM (complete main)
Идентификатор кодека : A_AC3
Продолжительность : 1 ч. 51 м.
Вид битрейта : Постоянный
Битрейт : 448 Кбит/сек
Каналы : 6 каналов
Расположение каналов : Front: L C R, Side: L R, LFE
Частота : 48,0 КГц
Битовая глубина : 16 бит
Метод сжатия : С потерями
Размер потока : 358 Мбайт (8%)
Заголовок : Одноголосый закадровый, Ю. Живов
Язык : Russian

Аудио #4
Идентификатор : 5
Формат : AC-3
Формат/Информация : Audio Coding 3
Расширение режима : CM (complete main)
Идентификатор кодека : A_AC3
Продолжительность : 1 ч. 51 м.
Вид битрейта : Постоянный
Битрейт : 448 Кбит/сек
Каналы : 6 каналов
Расположение каналов : Front: L C R, Side: L R, LFE
Частота : 48,0 КГц
Битовая глубина : 16 бит
Метод сжатия : С потерями
Размер потока : 358 Мбайт (8%)
Заголовок : Английский
Язык : English

Текст #1
Идентификатор : 6
Формат : UTF-8
Идентификатор кодека : S_TEXT/UTF8
Идентификатор кодека/Информация : UTF-8 Plain Text
Язык : Russian

Текст #2
Идентификатор : 7
Формат : UTF-8
Идентификатор кодека : S_TEXT/UTF8
Идентификатор кодека/Информация : UTF-8 Plain Text
Язык : English

Меню
00:00:00.000 : en:Chapter 01
00:06:31.349 : en:Chapter 02
00:13:43.405 : en:Chapter 03
00:20:58.423 : en:Chapter 04
00:27:36.279 : en:Chapter 05
00:35:45.893 : en:Chapter 06
00:43:15.426 : en:Chapter 07
00:48:56.892 : en:Chapter 08
00:54:37.357 : en:Chapter 09
01:02:48.097 : en:Chapter 10
01:09:34.336 : en:Chapter 11
01:15:10.005 : en:Chapter 12
01:20:23.109 : en:Chapter 13
01:25:46.724 : en:Chapter 14
01:32:09.815 : en:Chapter 15
01:40:00.995 : en:Chapter 16
01:51:44.280 : en:Chapter 17
Семпл Релиз от:

Авторы релиза:



Скачать Мутанты.Mimic.(Гильермо.дель.Торо).[1997.ужасы.фантастика.BDRip-AVC].[Режиссерская.версия].[DVO]+[AVO]x2+[Оригинал]+[Sub].torrent без регистрации
Золото ЗОЛОТАЯ РАЗДАЧА! СКАЧАННОЕ НЕ ЗАСЧИТЫВАЕТСЯ! Золото
Дата: Зарегистрирован   [ Тип: внутренний ] Как тут cкачать?
MAGNET ссылка
MAGNET ссылка


Скачать .torrent

21 KB

Статус: проверено DHT
Скачан: торрент - 134 раз, раздача полностью - 56 раз
Размер: 4,13 GB
Оценка:  4 (Голосов: 1)
Поблагодарили: 5
Поделиться ссылкой на эту раздачу с друзьями:
В контактеFacebookОдноклассникиTwitterLivejournalМой МирLiveinternet
 

 
Показать сообщения:    


Вы не можете начинать темы
Вы не можете отвечать на сообщения
Вы не можете редактировать свои сообщения
Вы не можете удалять свои сообщения
Вы не можете голосовать в опросах
Вы не можете прикреплять файлы к сообщениям
Вы можете скачивать файлы