Loading...
Error

Скачать Мост / Die Brucke (англ. The Bridge) (Бернхард Викки) [1959, драма, военный, DVDRip-AVC] [VO] торрент без регистрации

 
Статистика раздачи
Размер:  1,45 GB   |    Скачан:  101 раз
Сидов:  1  [  0 KB/s  ]  
 
Автор Сообщение

Marsianka

[] 

Информация о фильме
Название: Мост
Оригинальное название: Die Brucke (англ. The Bridge)
Год выхода: 1959
Жанр: драма, военный
Режиссер: Бернхард Викки
В ролях: Фолкер Бохнет, Фриц Веппер, Михаэль Хинц, Франк Глаубрехт, Карл Майкл Бальзер, Фолькер Лехтенбринк, Гюнтер Хоффманн, Кордула Трантоу, Вольфган Стумпф, Гюнтер Пфитцманн

О фильме:
События фильма происходят в маленьком немецком городке в последние дни Второй мировой войны. Гитлеровская армия терпит поражение за поражением, скоро в городе могут оказаться американские войска. В такой ситуации нацисты идут на крайние меры, пополняя свои резервы школьниками, взятыми прямо из-за парт.

Они призывают и семерых друзей-одноклассников, которые с восторгом воспринимают возможность отличиться. Однако голос разума подсказывает начальству, что лучше этих юнцов не бросать в мясорубку, поэтому их оставляют охранять мост, не имеющий никакого стратегического значения. Впрочем, вскоре так выходит, что они остаются последним препятствием на пути американских войск



Страна: Германия (ФРГ)
Студия: Fono Film
Продолжительность: 01:38:19
Перевод: Одноголосый (Живов)

Файл
Кодек: MKV, H.264
Качество: DVDRip-AVC
Видео: h264 (High), yuv420p, 696x572@742x572 [PAR 16:15 DAR 928:715], PAR 242:227 DAR 3828:2951, 1925 Kbps, 25 fps, 25 tbr, 1k tbn, 50 tbc
Звук: AC3, 48000 Hz, stereo, s16, 192 kb/s
General
Unique ID : 199031576937068425617858136495575362908 (0x95BC165F33C750E5E5B053D78F356D5C)
Complete name : /mnt/disk/Video/Die.Brucke.1959.Rus.AVO.DVDRip-AVC.UAGet.mkv
Format : Matroska
File size : 1.45 GiB
Duration : 1h 38mn
Overall bit rate : 2 118 Kbps
Movie name : Мост/ Die Brucke / The Bridge (1959) DVDRip-AVC -=UAGet=-
Encoded date : UTC 2013-04-22 05:37:49
Writing application : mkvmerge v4.8.0 ('I Got The...') сборка от Aug 22 2011 13:16:28
Writing library : libebml v1.2.0 + libmatroska v1.1.0

Video
ID : 1
Format : AVC
Format/Info : Advanced Video Codec
Format profile : High@L4.1
Format settings, CABAC : Yes
Format settings, ReFrames : 8 frames
Codec ID : V_MPEG4/ISO/AVC
Duration : 1h 38mn
Bit rate : 1 925 Kbps
Width : 696 pixels
Height : 572 pixels
Display aspect ratio : 1.297
Original display aspect ratio : 1.298
Frame rate : 25.000 fps
Color space : YUV
Chroma subsampling : 4:2:0
Bit depth : 8 bits
Scan type : Progressive
Bits/(Pixel*Frame) : 0.193
Stream size : 1.29 GiB (89%)
Title : Мост/ Die Brucke / The Bridge (1959) DVDRip-AVC -=UAGet=-
Writing library : x264 core 130
Encoding settings : cabac=1 / ref=9 / deblock=1:-3:-3 / analyse=0x3:0x133 / me=umh / subme=11 / psy=1 / psy_rd=1,00:0,20 / mixed_ref=1 / me_range=32 / chroma_me=1 / trellis=2 / 8x8dct=1 / cqm=0 / deadzone=21,11 / fast_pskip=0 / chroma_qp_offset=-3 / threads=6 / lookahead_threads=1 / sliced_threads=0 / nr=0 / decimate=1 / interlaced=0 / bluray_compat=0 / constrained_intra=0 / bframes=9 / b_pyramid=1 / b_adapt=2 / b_bias=0 / direct=3 / weightb=1 / open_gop=0 / weightp=2 / keyint=250 / keyint_min=25 / scenecut=40 / intra_refresh=0 / rc=2pass / mbtree=0 / bitrate=1925 / ratetol=1,0 / qcomp=1,00 / qpmin=0 / qpmax=69 / qpstep=4 / cplxblur=20,0 / qblur=0,5 / ip_ratio=1,40 / pb_ratio=1,30 / aq=2:0,60
Color primaries : BT.470-6 System B, BT.470-6 System G, BT.601-6 625, BT.1358 625, BT.1700 625 PAL, BT.1700 625 SECAM
Transfer characteristics : BT.709-5, BT.1361
Matrix coefficients : BT.601-6 525, BT.1358 525, BT.1700 NTSC, SMPTE 170M

Audio
ID : 2
Format : AC-3
Format/Info : Audio Coding 3
Mode extension : CM (complete main)
Codec ID : A_AC3
Duration : 1h 38mn
Bit rate mode : Constant
Bit rate : 192 Kbps
Channel(s) : 2 channels
Channel positions : Front: L R
Sampling rate : 48.0 KHz
Bit depth : 16 bits
Compression mode : Lossy
Stream size : 135 MiB (9%)
Title : Русский, одноголосый (Живов)
Language : Russian
Релиз от:



Скачать Мост.Die.Brucke.(англ.The.Bridge).(Бернхард.Викки).[1959.драма.военный.DVDRip-AVC].[VO].torrent без регистрации
Золото ЗОЛОТАЯ РАЗДАЧА! СКАЧАННОЕ НЕ ЗАСЧИТЫВАЕТСЯ! Золото
Дата: Зарегистрирован   [ Тип: внутренний ] Как тут cкачать?
MAGNET ссылка
MAGNET ссылка


Скачать .torrent

60 KB

Статус: проверено DHT
Скачан: торрент - 101 раз, раздача полностью - 21 раз
Размер: 1,45 GB
Оценка:  - (Голосов: 0)
Поблагодарили: 1
Поделиться ссылкой на эту раздачу с друзьями:
В контактеFacebookОдноклассникиTwitterLivejournalМой МирLiveinternet
 

 
Показать сообщения:    


Вы не можете начинать темы
Вы не можете отвечать на сообщения
Вы не можете редактировать свои сообщения
Вы не можете удалять свои сообщения
Вы не можете голосовать в опросах
Вы не можете прикреплять файлы к сообщениям
Вы можете скачивать файлы