Loading...
Error

Скачать Тернер и Хуч / Turner & Hooch (Роджер Споттисвуд) [1989, комедия, детектив, BDRip-AVC] [Dub]+[MVO]x4+[AVO]x3+[Sub] торрент без регистрации

 
Статистика раздачи
Размер:  3,9 GB   |    Скачан:  100 раз
Сидов:  1  [  0 KB/s  ]  
 
Автор Сообщение

Marsianka

[] 

Информация о фильме
Название: Тернер и Хуч
Оригинальное название: Turner & Hooch
Год выхода: 1989
Жанр: комедия, детектив
Режиссер: Роджер Споттисвуд
В ролях: Том Хэнкс, Мэр Уиннингхэм, Крэйг Т. Нельсон, Реджинальд ВелДжонсон, Скотт Полин, Дж. К. Куин, Джон МакИнтайр, Дэвид Нелл, Эбби Роу Смит, Кевин Сканнелл

О фильме:
Профессиональный сыщик Скотт Тернер ненавидит беспорядок. В его жизни все заранее спланировано и предсказуемо. Хуч самый неспокойный, самый невоспитанный и абсолютно неподдающийся дрессировке пес. Не повезет тому несчастному хозяину, к которому он попадет. Тернер слишком поздно понял, кого впустил в свой дом. Но шумные ссоры ни к чему не привели. Возможно, лучший способ одолеть своего врага, это подружиться с ним.



Страна: США
Студия: Silver Screen Partners IV, Touchstone Pictures
Продолжительность: 01:39:41
Перевод: Дублированный, профессиональный (многоголосый закадровый), авторский (одноголосый закадровый)

Файл
Кодек: h.264
Качество: BDRip-AVC
Видео: 3427 Кбит/с, 1024x556, 23.976 кадр/с
1: Русский (AC3, 2 ch, 192 Кбит/с) Профессиональный многоголосый [НТВ+]
2: Русский (AC3, 1 ch, 256 Кбит/с) Дублированный [СВ-Дубль]
3: Русский (AC3, 6 ch, 384 Кбит/с) Авторский одноголосый [Алексей Михалев]
4: Английский (AC3, 6 ch, 384 Кбит/с)
Отдельно:
5: Русский (AC3, 2 ch, 192 Кбит/с) Профессиональный многоголосый [ОРТ]
6: Русский (AC3, 2 ch, 192 Кбит/с) Профессиональный многоголосый [СТС]
7: Русский (AC3, 2 ch, 192 Кбит/с) Авторский одноголосый [Вартан Дохалов]
8: Русский (AC3, 2 ch, 192 Кбит/с) Авторский одноголосый [Юрий Живов]
9: Украинский (AC3, 2 ch, 192 Кбит/с) Профессиональный многоголосый

Субтитры: Русские, английские

Полное имя : Turner_and_Hooch_1989_AVC (ALL IN).mkv
Формат : Matroska
Версия формата : Version 4 / Version 2
Размер файла : 3,90 Гбайт
Продолжительность : 1 ч. 39 м.
Общий поток : 5600 Кбит/сек
Название фильма : Тернер и Хуч | Turner and Hooch [1989] -=BDRip (AVC) by 0ptimus=-
Дата кодирования : UTC 2013-04-21 18:19:17
Программа кодирования : mkvmerge v6.1.0 ('Old Devil') built on Mar 2 2013 14:32:37
Библиотека кодирования : libebml v1.3.0 + libmatroska v1.4.0

Видео
Идентификатор : 1
Формат : AVC
Формат/Информация : Advanced Video Codec
Профиль формата : High@L4.1
Параметр CABAC формата : Да
Параметр ReFrames формата : 9 кадров
Идентификатор кодека : V_MPEG4/ISO/AVC
Продолжительность : 1 ч. 39 м.
Битрейт : 3427 Кбит/сек
Ширина : 1024 пикселя
Высота : 556 пикселей
Соотношение сторон : 16:9
Частота кадров : 23,976 кадра/сек
Цветовое пространство : YUV
Субдискретизация насыщенности : 4:2:0
Битовая глубина : 8 бит
Тип развёртки : Прогрессивная
Бит/(Пиксели*Кадры) : 0.251
Размер потока : 2,31 Гбайт (59%)
Заголовок : Rip by 0ptimus
Библиотека кодирования : x264 core 130 r2273 b3065e6
Настройки программы : cabac=1 / ref=9 / deblock=1:-3:-3 / analyse=0x3:0x113 / me=umh / subme=11 / psy=1 / psy_rd=1.00:0.20 / mixed_ref=1 / me_range=32 / chroma_me=1 / trellis=2 / 8x8dct=1 / cqm=0 / deadzone=21,11 / fast_pskip=0 / chroma_qp_offset=-3 / threads=4 / lookahead_threads=1 / sliced_threads=0 / nr=0 / decimate=0 / interlaced=0 / bluray_compat=0 / constrained_intra=0 / bframes=7 / b_pyramid=2 / b_adapt=2 / b_bias=0 / direct=3 / weightb=1 / open_gop=0 / weightp=2 / keyint=240 / keyint_min=23 / scenecut=40 / intra_refresh=0 / rc_lookahead=40 / rc=2pass / mbtree=0 / bitrate=3427 / ratetol=1.0 / qcomp=0.60 / qpmin=0 / qpmax=69 / qpstep=4 / cplxblur=20.0 / qblur=0.5 / vbv_maxrate=50000 / vbv_bufsize=50000 / nal_hrd=none / ip_ratio=1.40 / pb_ratio=1.30 / aq=1:1.00
Язык : English

Аудио #1
Идентификатор : 2
Формат : AC-3
Формат/Информация : Audio Coding 3
Расширение режима : CM (complete main)
Идентификатор кодека : A_AC3
Продолжительность : 1 ч. 39 м.
Вид битрейта : Постоянный
Битрейт : 384 Кбит/сек
Каналы : 6 каналов
Расположение каналов : Front: L C R, Side: L R, LFE
Частота : 48,0 КГц
Битовая глубина : 16 бит
Метод сжатия : С потерями
Размер потока : 274 Мбайт (7%)
Язык : English

Аудио #2
Идентификатор : 3
Формат : AC-3
Формат/Информация : Audio Coding 3
Расширение режима : CM (complete main)
Идентификатор кодека : A_AC3
Продолжительность : 1 ч. 39 м.
Вид битрейта : Постоянный
Битрейт : 192 Кбит/сек
Каналы : 2 канала
Расположение каналов : Front: L R
Частота : 48,0 КГц
Битовая глубина : 16 бит
Метод сжатия : С потерями
Размер потока : 137 Мбайт (3%)
Заголовок : Дохалов
Язык : Russian

Аудио #3
Идентификатор : 4
Формат : AC-3
Формат/Информация : Audio Coding 3
Расширение режима : CM (complete main)
Идентификатор кодека : A_AC3
Продолжительность : 1 ч. 39 м.
Вид битрейта : Постоянный
Битрейт : 256 Кбит/сек
Каналы : 1 канал
Расположение каналов : Front: C
Частота : 48,0 КГц
Битовая глубина : 16 бит
Метод сжатия : С потерями
Размер потока : 183 Мбайт (5%)
Заголовок : Дублированный [СВ-Дубль]
Язык : Russian

Аудио #4
Идентификатор : 5
Формат : AC-3
Формат/Информация : Audio Coding 3
Расширение режима : CM (complete main)
Идентификатор кодека : A_AC3
Продолжительность : 1 ч. 39 м.
Вид битрейта : Постоянный
Битрейт : 192 Кбит/сек
Каналы : 2 канала
Расположение каналов : Front: L R
Частота : 48,0 КГц
Битовая глубина : 16 бит
Метод сжатия : С потерями
Размер потока : 137 Мбайт (3%)
Заголовок : Живов
Язык : Russian

Аудио #5
Идентификатор : 6
Формат : AC-3
Формат/Информация : Audio Coding 3
Расширение режима : CM (complete main)
Идентификатор кодека : A_AC3
Продолжительность : 1 ч. 39 м.
Вид битрейта : Постоянный
Битрейт : 384 Кбит/сек
Каналы : 6 каналов
Расположение каналов : Front: L C R, Side: L R, LFE
Частота : 48,0 КГц
Битовая глубина : 16 бит
Метод сжатия : С потерями
Размер потока : 274 Мбайт (7%)
Заголовок : Михалев
Язык : Russian

Аудио #6
Идентификатор : 7
Формат : AC-3
Формат/Информация : Audio Coding 3
Профиль формата : Dolby Digital
Расширение режима : CM (complete main)
Идентификатор кодека : A_AC3
Продолжительность : 1 ч. 39 м.
Вид битрейта : Постоянный
Битрейт : 192 Кбит/сек
Каналы : 2 канала
Расположение каналов : Front: L R
Частота : 48,0 КГц
Битовая глубина : 16 бит
Метод сжатия : С потерями
Размер потока : 137 Мбайт (3%)
Заголовок : MVO НТВ+
Язык : Russian

Аудио #7
Идентификатор : 8
Формат : AC-3
Формат/Информация : Audio Coding 3
Профиль формата : Dolby Digital
Расширение режима : CM (complete main)
Идентификатор кодека : A_AC3
Продолжительность : 1 ч. 39 м.
Вид битрейта : Постоянный
Битрейт : 192 Кбит/сек
Каналы : 2 канала
Расположение каналов : Front: L R
Частота : 48,0 КГц
Битовая глубина : 16 бит
Метод сжатия : С потерями
Размер потока : 137 Мбайт (3%)
Заголовок : MVO OPT
Язык : Russian

Аудио #8
Идентификатор : 9
Формат : AC-3
Формат/Информация : Audio Coding 3
Профиль формата : Dolby Digital
Расширение режима : CM (complete main)
Идентификатор кодека : A_AC3
Продолжительность : 1 ч. 39 м.
Вид битрейта : Постоянный
Битрейт : 192 Кбит/сек
Каналы : 2 канала
Расположение каналов : Front: L R
Частота : 48,0 КГц
Битовая глубина : 16 бит
Метод сжатия : С потерями
Размер потока : 137 Мбайт (3%)
Заголовок : MVO CTC
Язык : Russian

Аудио #9
Идентификатор : 10
Формат : AC-3
Формат/Информация : Audio Coding 3
Профиль формата : Dolby Digital
Расширение режима : CM (complete main)
Идентификатор кодека : A_AC3
Продолжительность : 1 ч. 39 м.
Вид битрейта : Постоянный
Битрейт : 192 Кбит/сек
Каналы : 2 канала
Расположение каналов : Front: L R
Частота : 48,0 КГц
Битовая глубина : 16 бит
Метод сжатия : С потерями
Размер потока : 137 Мбайт (3%)
Заголовок : MVO
Язык : Ukrainian

Текст #1
Идентификатор : 11
Формат : UTF-8
Идентификатор кодека : S_TEXT/UTF8
Идентификатор кодека/Информация : UTF-8 Plain Text
Язык : Russian

Текст #2
Идентификатор : 12
Формат : UTF-8
Идентификатор кодека : S_TEXT/UTF8
Идентификатор кодека/Информация : UTF-8 Plain Text
Язык : English

Меню
00:00:00.000 : :Scott and Hooch
00:12:27.747 : :Amos Gets Killed
00:17:37.513 : :Catching Hooch
00:25:54.844 : :Hooch at the Doctor's Office
00:29:11.123 : :A Long Night
00:36:43.159 : :Home Alone
00:44:38.092 : :Scott and Emily
00:50:24.896 : :The Eyewitness
00:59:10.296 : :On the Case
01:05:35.890 : :Falling in Love
01:19:01.528 : :Solving the Case
01:30:05.649 : :A New Beginning/End Credits
01:39:31.215 : :End

x264 [info]: frame I:1074 Avg QP:16.66 size: 73103
x264 [info]: frame P:33820 Avg QP:19.32 size: 31512
x264 [info]: frame B:108287 Avg QP:20.78 size: 13055
Релиз от:



Скачать Тернер.и.Хуч.Turner.&.Hooch.(Роджер.Споттисвуд).[1989.комедия.детектив.BDRip-AVC].[Dub]+[MVO]x4+[AVO]x3+[Sub].torrent без регистрации
Золото ЗОЛОТАЯ РАЗДАЧА! СКАЧАННОЕ НЕ ЗАСЧИТЫВАЕТСЯ! Золото
Дата: Зарегистрирован   [ Тип: внутренний ] Как тут cкачать?
MAGNET ссылка
MAGNET ссылка


Скачать .torrent

21 KB

Статус: проверено DHT
Скачан: торрент - 100 раз, раздача полностью - 8 раз
Размер: 3,9 GB
Оценка:  - (Голосов: 0)
Поблагодарили: 3
Поделиться ссылкой на эту раздачу с друзьями:
В контактеFacebookОдноклассникиTwitterLivejournalМой МирLiveinternet
 

 
Показать сообщения:    


Вы не можете начинать темы
Вы не можете отвечать на сообщения
Вы не можете редактировать свои сообщения
Вы не можете удалять свои сообщения
Вы не можете голосовать в опросах
Вы не можете прикреплять файлы к сообщениям
Вы можете скачивать файлы