Loading...
Error

Скачать Секретный агент Ройс / Royce (Род Холкомб) [1994 г., боевик, приключения, DVDRip] [AVO] (Алексей Михалев) торрент без регистрации

 
Статистика раздачи
Размер:  1,37 GB   |    Скачан:  96 раз
Сидов:  1  [  0 KB/s  ]  
 
Автор Сообщение

leon030982

[] 

Секретный агент Ройс / Royce


Год выпуска: 1994
Страна: США
Жанр: Боевик, приключения
Продолжительность: 01:34:00
Перевод: Авторский (одноголосный)[Алексей Михалев]

Режиссер: Род Холкомб /Rod Holcomb

В ролях: Джеймс Белуши /James Belushi/, Мигель Феррер /Miguel Ferrer/, Челси Филд /Chelsea Field/, Майкл Дж. Шэннон /Michael J. Shannon/, Энтони Хэд, Мари Теодор, Питер Бойл /Peter Boyle

Описание: Правительство США сокращает военные расходы, и Шейна Ройса (Джеймс Белуши), как и других секретных агентов спец отряда "Черная дыра", увольняют с работы. Оптимист, любитель острых шуток и красивых женщин, Ройс убеждает себя, что это просто длительный отпуск. Но его сослуживец, хладнокровный и безжалостный Кен Гриббон (Мигель Феррер) думает иначе. Он решил поквитаться со своим бывшим начальством, а заодно и пополнить свой "пенсионный фонд". Гриббон и его подручные угоняют на территории Украины поезд с ядерными боеголовками, чтобы продать их международным террористам. Мир на грани катастрофы. Вот тут-то начальство и вспоминает о секретном агенте Ройсе…



Качество: DVDRip
Формат: AVI
Видео кодек: XviD
Аудио кодек: MP3
Видео: 672x512 (1.31:1), 25 fps, XviD build 46 ~1953 kbps avg, 0.23 bit/pixel
Аудио: 48 kHz, MPEG Layer 3, 2 ch, ~111.94 kbps avg
E:\INTERNET\agent_roys_[torrents.ru].avi
General
Complete name : E:\INTERNET\agent_roys_[torrents.ru].avi
Format : AVI
Format/Info : Audio Video Interleave
File size : 1.37 GiB
Duration : 1h 34mn
Overall bit rate mode : Variable
Overall bit rate : 2 079 Kbps
Writing application : VirtualDubMod 1.5.4.1 (build 2178/release)
Writing library : VirtualDubMod build 2178/release
Video #0
ID : 0
Format : MPEG-4 Visual
Format profile : Advanced Simple@L5
Format settings, BVOP : 1
Format settings, QPel : No
Format settings, GMC : No warppoints
Format settings, Matrix : Custom
Codec ID : XVID
Codec ID/Hint : XviD
Duration : 1h 34mn
Bit rate : 1 954 Kbps
Width : 672 pixels
Height : 512 pixels
Display aspect ratio : 4:3
Frame rate : 25.000 fps
Color space : YUV
Chroma subsampling : 4:2:0
Bit depth : 8 bits
Scan type : Progressive
Compression mode : Lossy
Bits/(Pixel*Frame) : 0.227
Stream size : 1.29 GiB (94%)
Writing library : XviD 1.1.2 (UTC 2006-11-01)
Audio #1
ID : 1
Format : MPEG Audio
Format version : Version 1
Format profile : Layer 3
Mode : Joint stereo
Codec ID : 55
Codec ID/Hint : MP3
Duration : 1h 34mn
Bit rate mode : Variable
Bit rate : 112 Kbps
Channel(s) : 2 channels
Sampling rate : 48.0 KHz
Compression mode : Lossy
Stream size : 75.4 MiB (5%)
Alignment : Aligned on interleaves
Interleave, duration : 24 ms (0.60 video frame)
Interleave, preload duration : 176 ms
Language : Russian



Скачать Секретный.агент.Ройс.Royce.(Род.Холкомб).[1994.г.боевик.приключения.DVDRip].[AVO].(Алексей.Михалев).torrent без регистрации
Золото ЗОЛОТАЯ РАЗДАЧА! СКАЧАННОЕ НЕ ЗАСЧИТЫВАЕТСЯ! Золото
Дата: Зарегистрирован   [ Тип: внутренний ] Как тут cкачать?
MAGNET ссылка
MAGNET ссылка


Скачать .torrent

14 KB

Статус: проверено DHT
Скачан: торрент - 96 раз, раздача полностью - 3 раз
Размер: 1,37 GB
Оценка:  5 (Голосов: 1)
Поблагодарили: 2
Поделиться ссылкой на эту раздачу с друзьями:
В контактеFacebookОдноклассникиTwitterLivejournalМой МирLiveinternet
 

 
Показать сообщения:    


Вы не можете начинать темы
Вы не можете отвечать на сообщения
Вы не можете редактировать свои сообщения
Вы не можете удалять свои сообщения
Вы не можете голосовать в опросах
Вы не можете прикреплять файлы к сообщениям
Вы можете скачивать файлы