Loading...
Error

Скачать Унесённый морем / Swept From The Sea (Бибан Кидрон) [1997, драма, мелодрама, DVDRip] [Dub] торрент без регистрации

 
Статистика раздачи
Размер:  1,36 GB   |    Скачан:  97 раз
Сидов:  1  [  0 KB/s  ]  
 
Автор Сообщение

Marsianka

[] 

Информация о фильме
Название: Унесённый морем
Оригинальное название: Swept From The Sea
Год выхода: 1997
Жанр: драма, мелодрама
Режиссер: Бибан Кидрон
В ролях: Рейчел Вайс, Венсан Перес, Иэн МакКеллен, Кэти Бейтс, Джосс Экленд, Тони Хейгарт, Том Белл, Зоэ Уонамейкер, Уильям Скотт-Мэссон, Мэтью Скарфильд ...

О фильме:
Эми Фостер живет в маленьком городке на берегу моря. Под внешностью застенчивой и замкнутой девушки скрывается страстная женщина, но в атмосфере викторианской Англии XIX века любое сильное чувство вызывает недоверие и ненависть окружающих. Многие боятся ее и даже считают ведьмой.

Она обречена на одиночество, но море посылает ей один из своих самых прекрасных и самых опасных даров. Янко единственный из оставшихся в живых после жестокого шторма, выброшен на незнакомую и враждебную землю. Когда эти двое встречают друг друга, начинается другая буря, которая способна поднять их на вершину счастья или уничтожить.



Страна: США, Великобритания
Продолжительность: 01:49:05
Перевод: Дублированный

Файл
Формат: AVI
Кодек: XviD
Качество: DVDRip
Видео: 704x288, 25,000 кадров/сек, 1396 Кбит/сек, 0,27 Бит/пиксили*кадры
Звук: Dolby AC3, 48000 Гц, 6 каналов, 384 Кбит/сек
Субтитры: Отсутствуют
Общее
Полное имя : I:ФильмыУнесённый.морем.XviD.DVDRip.1997.[VladlenCry].avi
Формат : AVI
Формат/Информация : Audio Video Interleave
Размер файла : 1,36 Гбайт
Продолжительность : 1 ч. 49 м.
Общий поток : 1789 Кбит/сек
Программа кодирования : VirtualDubMod 1.5.10.2 (build 2540/release)
Библиотека кодирования : VirtualDubMod build 2540/release

Видео
Идентификатор : 0
Формат : MPEG-4 Visual
Профиль формата : Advanced Simple@L5
Параметр BVOP формата : 2
Параметр QPel формата : Нет
Параметр GMC формата : Без точки перехода
Параметр матрицы формата : Default (H.263)
Режим смешивания : Сжатый битовый поток
Идентификатор кодека : XVID
Идентификатор кодека/Подсказка : XviD
Продолжительность : 1 ч. 49 м.
Битрейт : 1396 Кбит/сек
Ширина : 704 пикселя
Высота : 288 пикселей
Соотношение сторон : 2,40:1
Частота кадров : 25,000 кадров/сек
Цветовое пространство : YUV
Субдискретизация насыщенности : 4:2:0
Битовая глубина : 8 бит
Тип развёртки : Прогрессивная
Метод сжатия : С потерями
Бит/(Пиксели*Кадры) : 0.275
Размер потока : 1,06 Гбайт (78%)
Библиотека кодирования : XviD 1.2.0.dev47 (UTC 2006-11-01)

Аудио
Идентификатор : 1
Формат : AC-3
Формат/Информация : Audio Coding 3
Расширение режима : CM (complete main)
Параметр Endianness формата : Big
Идентификатор кодека : 2000
Продолжительность : 1 ч. 49 м.
Вид битрейта : Постоянный
Битрейт : 384 Кбит/сек
Каналы : 6 каналов
Расположение каналов : Front: L C R, Side: L R, LFE
Частота : 48,0 КГц
Битовая глубина : 16 бит
Метод сжатия : С потерями
Размер потока : 300 Мбайт (21%)
Выравнивание : Разделение по промежуткам
Продолжительность промежутка : 40 мс. (1,00 видеокадр)
Время предзагрузки промежутка : 500 мс.



Скачать Унесённый.морем.Swept.From.The.Sea.(Бибан.Кидрон).[1997.драма.мелодрама.DVDRip].[Dub].torrent без регистрации
Золото ЗОЛОТАЯ РАЗДАЧА! СКАЧАННОЕ НЕ ЗАСЧИТЫВАЕТСЯ! Золото
Дата: Зарегистрирован   [ Тип: внутренний ] Как тут cкачать?
MAGNET ссылка
MAGNET ссылка


Скачать .torrent

14 KB

Статус: проверено DHT
Скачан: торрент - 97 раз, раздача полностью - 20 раз
Размер: 1,36 GB
Оценка:  5 (Голосов: 1)
Поблагодарили: 1
Поделиться ссылкой на эту раздачу с друзьями:
В контактеFacebookОдноклассникиTwitterLivejournalМой МирLiveinternet
 

 
Показать сообщения:    


Вы не можете начинать темы
Вы не можете отвечать на сообщения
Вы не можете редактировать свои сообщения
Вы не можете удалять свои сообщения
Вы не можете голосовать в опросах
Вы не можете прикреплять файлы к сообщениям
Вы можете скачивать файлы