Loading...
Error

Скачать Далекая страна / Далеко-далеко / Far and Away (Рон Ховард) [1992, приключения, драма, мелодрама, HDTVRip] [MVO]+[AVO] торрент без регистрации

 
Статистика раздачи
Размер:  2,19 GB   |    Скачан:  5103 раза
Сидов:  1  [  0 KB/s  ]  
 
Автор Сообщение

Marsianka

[] 



Информация о фильме
Название: Далекая страна / Далеко-далеко
Оригинальное название: Far and Away
Год выхода: 1992
Жанр: приключения, драма, мелодрама
Режиссер: Рон Ховард
В ролях: Том Круз, Николь Кидман, Томас Гибсон, Роберт Проски, Барбара Бэбкок, Колм Мини, Мишель Джонсон и др.

О фильме:
Еще одна история времен Дикого Запада и редкая возможность увидеть вместе на экране семейный звездный дует Том Круз и Николь Кидман. Рыжеволосая кудрявая красавица и ее скромный, но не имеющий не гроша за душой возлюбленный, ирландец, отправляются на заокеанский далекий Запад в поисках счастья.



Страна: США
Продолжительность: 02:19:48
Перевод: Профессиональный (многоголосый, закадровый)|ОРТ|, Авторский одноголосый |Андрей Гаврилов|

Файл
Кодек: Xvid
Качество: HDTVRip
Видео: 720x304, 23.976 fps, 1836 Kbps
Аудио 1: AC3, 2 ch, 192.00 kbps.....Профессиональный (многоголосый, закадровый)|ОРТ|
Аудио 2: AC3, 2 ch, 192.00 kbps.....Авторский одноголосый |Андрей Гаврилов|
General
Complete name : Far.and.Away.1992.HDTVRip.avi
Format : AVI
Format/Info : Audio Video Interleave
Format profile : OpenDML
File size : 2.19 GiB
Duration : 2h 19mn
Overall bit rate : 2 238 Kbps
Writing application : VirtualDubMod 1.5.10.2 (build 2542/release)
Writing library : VirtualDubMod build 2542/release

Video
ID : 0
Format : MPEG-4 Visual
Format profile : Advanced Simple@L5
Format settings, BVOP : 1
Format settings, QPel : No
Format settings, GMC : No warppoints
Format settings, Matrix : Custom
Codec ID : XVID
Codec ID/Hint : XviD
Duration : 2h 19mn
Bit rate : 1 836 Kbps
Width : 720 pixels
Height : 304 pixels
Display aspect ratio : 2.35:1
Frame rate : 23.976 fps
Color space : YUV
Chroma subsampling : 4:2:0
Bit depth : 8 bits
Scan type : Progressive
Compression mode : Lossy
Bits/(Pixel*Frame) : 0.350
Stream size : 1.79 GiB (82%)
Writing library : XviD 65

Audio #1
ID : 1
Format : AC-3
Format/Info : Audio Coding 3
Mode extension : CM (complete main)
Format settings, Endianness : Big
Codec ID : 2000
Duration : 2h 19mn
Bit rate mode : Constant
Bit rate : 192 Kbps
Channel(s) : 2 channels
Channel positions : Front: L R
Sampling rate : 48.0 KHz
Bit depth : 16 bits
Compression mode : Lossy
Stream size : 192 MiB (9%)
Alignment : Split accross interleaves
Interleave, duration : 42 ms (1.00 video frame)
Interleave, preload duration : 500 ms

Audio #2
ID : 2
Format : AC-3
Format/Info : Audio Coding 3
Mode extension : CM (complete main)
Format settings, Endianness : Big
Codec ID : 2000
Duration : 2h 19mn
Bit rate mode : Constant
Bit rate : 192 Kbps
Channel(s) : 2 channels
Channel positions : Front: L R
Sampling rate : 48.0 KHz
Bit depth : 16 bits
Compression mode : Lossy
Stream size : 192 MiB (9%)
Alignment : Split accross interleaves
Interleave, duration : 42 ms (1.00 video frame)
Interleave, preload duration : 500 ms
Релиз от: Leon-masl



Скачать Далекая.страна.Далеко-далеко.Far.and.Away.(Рон.Ховард).[1992.приключения.драма.мелодрама.HDTVRip].[MVO]+[AVO].torrent без регистрации
Золото ЗОЛОТАЯ РАЗДАЧА! СКАЧАННОЕ НЕ ЗАСЧИТЫВАЕТСЯ! Золото
Дата: Зарегистрирован   [ Тип: внутренний ] Как тут cкачать?
MAGNET ссылка
MAGNET ссылка


Скачать .torrent

12 KB

Статус: проверено DHT
Скачан: торрент - 5103 раз, раздача полностью - 62 раз
Размер: 2,19 GB
Оценка:  - (Голосов: 0)
Поблагодарили: 1
Поделиться ссылкой на эту раздачу с друзьями:
В контактеFacebookОдноклассникиTwitterLivejournalМой МирLiveinternet
 

 
Показать сообщения:    


Вы не можете начинать темы
Вы не можете отвечать на сообщения
Вы не можете редактировать свои сообщения
Вы не можете удалять свои сообщения
Вы не можете голосовать в опросах
Вы не можете прикреплять файлы к сообщениям
Вы можете скачивать файлы