Loading...
Error

Скачать Французский твист / Gazon maudit / French Twist (Жозиан Баласко) [1994, комедия, BDRip-AVC] [DVO]+[Оригинал]+[Sub] торрент без регистрации

 
Статистика раздачи
Размер:  2,96 GB   |    Скачан:  101 раз
Сидов:  1  [  0 KB/s  ]  
 
Автор Сообщение

Marsianka

[] 

Информация о фильме
Название: Французский твист
Оригинальное название: Gazon maudit / French Twist
Год выхода: 1994
Жанр: комедия
Режиссер: Жозиан Баласко
В ролях: Жозиан Баласко, Виктория Абриль, Ален Шаба, Тикки Ольгадо, Катрин Хигель, Катрин Сами, Катрин Лашанс, Кэтрин Бурмен, Телше Бурмен, Вероник Барро, Сильви Одкур, Мишель Бернье, Морин Диот, Мигель Бозе, Жан-Люк Виолет, Катрин Алиас, Филипп Берри, Пол Суисса, Энтони Мартин, Эдмон Франчи, Анник Бергер, Костас Пападопулос, Дэльфин Дюпон, Хенри Талау, Арлетт Лебре, Бланка Ли, Хелен Рэймбо

О фильме:
Лоран и Лоли счастливы в браке. Даже несмотря на то, что при каждом удобном случае Лоран старается изменить жене. Но в тот день, когда в их жизнь со скоростью торнадо ворвалась очаровательная лесбиянка Марижо, все изменилось. Марижо не только влюбляется в Лоли, но и влюбляет её в себя. Лоран отчаянно пытается спасти свой брачный союз, и одно время Лоран и Марижо даже живут с Лоли по очереди. Но Марижо встречает старых подруг, и обиженная Лоли возвращается к мужу. По крайней мере, так ему кажется. На самом деле история только начинается



Страна: Франция
Студия: Canal+ [fr], Les Films Flam, Renn Productions, TF1 Films Production
Продолжительность: 01:47:07
Перевод: Профессиональный (двухголосый закадровый) (Екатеринбург Арт) + оригинал

Файл
Кодек: MPEG-4 AVC
Качество: BDRip-AVC
Видео: 3500 Кбит/с, 1024x552, 24.000 кадр/с
Звук:
Русский (AC3, 2 ch, 192 Кбит/с)
Французский (AC3, 2 ch, 256 Кбит/с)
Субтитры: Русские

Семпл
General
Unique ID : 246893139518123766688919064670530438741 (0xB9BDE39887ADBDC68D04B03157140655)
Complete name : D:2Films DРелизыFrancuzskij.tvist.1994.x264.BDRip.AVC.MediaClub.mkv
Format : Matroska
Format version : Version 2
File size : 2.96 GiB
Duration : 1h 47mn
Overall bit rate : 3 949 Kbps
Movie name : = MediaClub = rip by Lefevr
Encoded date : UTC 2013-04-22 14:01:17
Writing application : mkvmerge v5.4.0 ('Piper') built on Mar 10 2012 13:34:39
Writing library : libebml v1.2.3 + libmatroska v1.3.0

Video
ID : 1
Format : AVC
Format/Info : Advanced Video Codec
Format profile : High@L4.1
Format settings, CABAC : Yes
Format settings, ReFrames : 9 frames
Codec ID : V_MPEG4/ISO/AVC
Duration : 1h 47mn
Bit rate : 3 500 Kbps
Width : 1 024 pixels
Height : 552 pixels
Display aspect ratio : 1.855
Frame rate : 24.000 fps
Color space : YUV
Chroma subsampling : 4:2:0
Bit depth : 8 bits
Scan type : Progressive
Bits/(Pixel*Frame) : 0.258
Stream size : 2.56 GiB (87%)
Title : Francuzskij.tvist.1995.x264.BDRip.AVC.MediaClub
Writing library : x264 core 125 r2208 d9d2288
Encoding settings : cabac=1 / ref=9 / deblock=1:-2:-2 / analyse=0x3:0x133 / me=umh / subme=11 / psy=1 / psy_rd=1.00:0.20 / mixed_ref=1 / me_range=32 / chroma_me=1 / trellis=2 / 8x8dct=1 / cqm=0 / deadzone=21,11 / fast_pskip=0 / chroma_qp_offset=-3 / threads=6 / lookahead_threads=1 / sliced_threads=0 / nr=0 / decimate=0 / interlaced=0 / bluray_compat=0 / constrained_intra=0 / bframes=8 / b_pyramid=2 / b_adapt=2 / b_bias=0 / direct=3 / weightb=1 / open_gop=0 / weightp=2 / keyint=240 / keyint_min=24 / scenecut=40 / intra_refresh=0 / rc=2pass / mbtree=0 / bitrate=3500 / ratetol=1.0 / qcomp=0.60 / qpmin=0 / qpmax=69 / qpstep=4 / cplxblur=20.0 / qblur=0.5 / ip_ratio=1.40 / pb_ratio=1.30 / aq=1:1.00
Language : French
Default : Yes
Forced : No

Audio #1
ID : 2
Format : AC-3
Format/Info : Audio Coding 3
Mode extension : CM (complete main)
Codec ID : A_AC3
Duration : 1h 47mn
Bit rate mode : Constant
Bit rate : 192 Kbps
Channel(s) : 2 channels
Channel positions : Front: L R
Sampling rate : 48.0 KHz
Bit depth : 16 bits
Compression mode : Lossy
Stream size : 147 MiB (5%)
Title : TRACK_01_DVO_RUS
Language : Russian
Default : Yes
Forced : No

Audio #2
ID : 3
Format : AC-3
Format/Info : Audio Coding 3
Mode extension : CM (complete main)
Codec ID : A_AC3
Duration : 1h 47mn
Bit rate mode : Constant
Bit rate : 256 Kbps
Channel(s) : 2 channels
Channel positions : Front: L R
Sampling rate : 48.0 KHz
Bit depth : 16 bits
Compression mode : Lossy
Stream size : 196 MiB (6%)
Title : TRACK_02_ORIGINAL_FRE
Language : French
Default : No
Forced : No

Text
ID : 4
Format : UTF-8
Codec ID : S_TEXT/UTF8
Codec ID/Info : UTF-8 Plain Text
Title : TEXT_01_SUB_RUS
Language : Russian
Default : No
Forced : No
x264 [info]: frame I:1016 Avg QP:17.91 size:108319
x264 [info]: frame P:31999 Avg QP:20.70 size: 39209
x264 [info]: frame B:121243 Avg QP:22.21 size: 11932
Релиз от:

Автор рипа:



Скачать Французский.твист.Gazon.maudit.French.Twist.(Жозиан.Баласко).[1994.комедия.BDRip-AVC].[DVO]+[Оригинал]+[Sub].torrent без регистрации
Золото ЗОЛОТАЯ РАЗДАЧА! СКАЧАННОЕ НЕ ЗАСЧИТЫВАЕТСЯ! Золото
Дата: Зарегистрирован   [ Тип: внутренний ] Как тут cкачать?
MAGNET ссылка
MAGNET ссылка


Скачать .torrent

15 KB

Статус: проверено DHT
Скачан: торрент - 101 раз, раздача полностью - 29 раз
Размер: 2,96 GB
Оценка:  - (Голосов: 0)
Поблагодарили: 1
Поделиться ссылкой на эту раздачу с друзьями:
В контактеFacebookОдноклассникиTwitterLivejournalМой МирLiveinternet
 

 
Показать сообщения:    


Вы не можете начинать темы
Вы не можете отвечать на сообщения
Вы не можете редактировать свои сообщения
Вы не можете удалять свои сообщения
Вы не можете голосовать в опросах
Вы не можете прикреплять файлы к сообщениям
Вы можете скачивать файлы