Loading...
Error

Скачать Дорогая, мы себя уменьшили / Honey, We Shrunk Ourselves (Дин Канди) [1997, фантастика, боевик, комедия, приключения, семейный, DVDRip] [MVO]+[Оригинал] торрент без регистрации

 
Статистика раздачи
Размер:  1,49 GB   |    Скачан:  103 раза

Полного источника не было: 24 минуты

 
Автор Сообщение

Marsianka

[] 

«The world's wackiest scientist has done it again!»

Страна: США
Студия: Walt Disney Pictures
Жанр: фантастика, боевик, комедия, приключения, семейный
Год выпуска: 1997
Продолжительность: 01:11:56

Перевод: Профессиональный (многоголосый, закадровый)
Оригинальная аудиодорожка: английский
Cубтитры: нет

Режиссер: Дин Канди / Dean Cundey

В ролях: Рик Морэнис, Ив Гордон, Баг Холл, Робин Бартлетт, Стюарт Пэнкин, Эллисон Мэк, Джэйк Ричардсон, Джо Адамс, Брайсон Ост, Теодор Бордерс...

Описание: На этот раз самому профессору выпал шанс оценить, каково сражаться с тараканами размером с Годзиллу и кататься на игрушечных автомобильчиках. Если дети вовремя не заметят своих маленьких родителей, они рискуют остаться сиротами.

Исходник: DVD5 (custom)
Качество: DVDRip
Формат: AVI

Видео: 720x544 (4:3), 25.000 fps, XviD ~ 2315 kbps avg, 0.236 bit/pixel
Аудио 1: 48 kHz, AC3 2 ch, 192 kbps, русский
Аудио 2: 48 kHz, AC3 6 ch, 448 kbps, английский

Раздача от:

Общее
Полное имя : Dorogaya.my.sebya.umenshili.1997.P.DVDRip_[Youtracker]_by_avproh.avi
Формат : AVI
Формат/Информация : Audio Video Interleave
Размер файла : 1,49 Гбайт
Продолжительность : 1 ч. 11 м.
Общий поток : 2969 Кбит/сек
Программа кодирования : VirtualDubModRus 1.5.10.2 (build 2542/release)
Библиотека кодирования : VirtualDubMod build 2542/release

Видео
Идентификатор : 0
Формат : MPEG-4 Visual
Профиль формата : Advanced Simple@L5
Параметр BVOP формата : 1
Параметр QPel формата : Нет
Параметр GMC формата : Без точки перехода
Параметр матрицы формата : Выборочная
Идентификатор кодека : XVID
Идентификатор кодека/Подсказка : XviD
Продолжительность : 1 ч. 11 м.
Битрейт : 2315 Кбит/сек
Ширина : 720 пикселей
Высота : 544 пикселя
Соотношение сторон : 4:3
Частота кадров : 25,000 кадров/сек
Цветовое пространство : YUV
Субдискретизация насыщенности : 4:2:0
Битовая глубина : 8 бит
Тип развёртки : Прогрессивная
Метод сжатия : С потерями
Бит/(Пиксели*Кадры) : 0.236
Размер потока : 1,16 Гбайт (78%)
Библиотека кодирования : XviD 65

Аудио #1
Идентификатор : 1
Формат : AC-3
Формат/Информация : Audio Coding 3
Расширение режима : CM (complete main)
Параметр Endianness формата : Big
Идентификатор кодека : 2000
Продолжительность : 1 ч. 11 м.
Вид битрейта : Постоянный
Битрейт : 192 Кбит/сек
Каналы : 2 канала
Расположение каналов : Front: L R
Частота : 48,0 КГц
Битовая глубина : 16 бит
Метод сжатия : С потерями
Размер потока : 98,7 Мбайт (6%)
Выравнивание : Разделение по промежуткам
Продолжительность промежутка : 40 мс. (1,00 видеокадр)
Время предзагрузки промежутка : 500 мс.

Аудио #2
Идентификатор : 2
Формат : AC-3
Формат/Информация : Audio Coding 3
Расширение режима : CM (complete main)
Параметр Endianness формата : Big
Идентификатор кодека : 2000
Продолжительность : 1 ч. 11 м.
Вид битрейта : Постоянный
Битрейт : 448 Кбит/сек
Каналы : 6 каналов
Расположение каналов : Front: L C R, Side: L R, LFE
Частота : 48,0 КГц
Битовая глубина : 16 бит
Метод сжатия : С потерями
Размер потока : 230 Мбайт (15%)
Выравнивание : Разделение по промежуткам
Продолжительность промежутка : 40 мс. (1,00 видеокадр)
Время предзагрузки промежутка : 500 мс.



Скачать Дорогая.мы.себя.уменьшили.Honey.We.Shrunk.Ourselves.(Дин.Канди).[1997.фантастика.боевик.комедия.приключения.семейный.DVDRip].[MVO]+[Оригинал].torrent без регистрации
Золото ЗОЛОТАЯ РАЗДАЧА! СКАЧАННОЕ НЕ ЗАСЧИТЫВАЕТСЯ! Золото
Дата: Зарегистрирован   [ Тип: внутренний ] Как тут cкачать?
MAGNET ссылка
MAGNET ссылка


Скачать .torrent

16 KB

Статус: проверено DHT
Скачан: торрент - 103 раз, раздача полностью - 30 раз
Размер: 1,49 GB
Оценка:  5 (Голосов: 1)
Поблагодарили: 2
Поделиться ссылкой на эту раздачу с друзьями:
В контактеFacebookОдноклассникиTwitterLivejournalМой МирLiveinternet
 

 
Показать сообщения:    


Вы не можете начинать темы
Вы не можете отвечать на сообщения
Вы не можете редактировать свои сообщения
Вы не можете удалять свои сообщения
Вы не можете голосовать в опросах
Вы не можете прикреплять файлы к сообщениям
Вы можете скачивать файлы