Loading...
Error

Скачать Дорогая, мы себя уменьшили / Honey, We Shrunk Ourselves (Дин Канди) [1997, фантастика, боевик, комедия, приключения, семейный, DVDRip] [MVO]+[Оригинал] торрент без регистрации

 
Статистика раздачи
Размер:  745 MB   |    Скачан:  116 раз
Сидов:  1  [  0 KB/s  ]  
 
Автор Сообщение

Marsianka

[] 

«The world's wackiest scientist has done it again!»

Страна: США
Студия: Walt Disney Pictures
Жанр: фантастика, боевик, комедия, приключения, семейный
Год выпуска: 1997
Продолжительность: 01:11:56

Перевод: Профессиональный (многоголосый, закадровый)
Оригинальная аудиодорожка: английский
Cубтитры: нет

Режиссер: Дин Канди / Dean Cundey

В ролях: Рик Морэнис, Ив Гордон, Баг Холл, Робин Бартлетт, Стюарт Пэнкин, Эллисон Мэк, Джэйк Ричардсон, Джо Адамс, Брайсон Ост, Теодор Бордерс...

Описание: На этот раз самому профессору выпал шанс оценить, каково сражаться с тараканами размером с Годзиллу и кататься на игрушечных автомобильчиках. Если дети вовремя не заметят своих маленьких родителей, они рискуют остаться сиротами.

Исходник: DVD5 (custom)
Качество: DVDRip
Формат: AVI

Видео: 640x480 (4:3), 25.000 fps, XviD ~ 1311 kbps avg, 0.171 bit/pixel
Аудио: 48 kHz, МР3 2 ch, 128 kbps, русский

Раздача от:

Общее
Полное имя : Dorogaya.my.sebya.umenshili.1997.P.DVDRip.745MB_[Youtracker]_by_avproh.avi
Формат : AVI
Формат/Информация : Audio Video Interleave
Размер файла : 745 Мбайт
Продолжительность : 1 ч. 11 м.
Общий поток : 1448 Кбит/сек
Программа кодирования : VirtualDubModRus 1.5.10.2 (build 2542/release)
Библиотека кодирования : VirtualDubMod build 2542/release

Видео
Идентификатор : 0
Формат : MPEG-4 Visual
Профиль формата : Advanced Simple@L5
Параметр BVOP формата : 1
Параметр QPel формата : Нет
Параметр GMC формата : Без точки перехода
Параметр матрицы формата : Выборочная
Идентификатор кодека : XVID
Идентификатор кодека/Подсказка : XviD
Продолжительность : 1 ч. 11 м.
Битрейт : 1311 Кбит/сек
Ширина : 640 пикселей
Высота : 480 пикселей
Соотношение сторон : 4:3
Частота кадров : 25,000 кадров/сек
Цветовое пространство : YUV
Субдискретизация насыщенности : 4:2:0
Битовая глубина : 8 бит
Тип развёртки : Прогрессивная
Метод сжатия : С потерями
Бит/(Пиксели*Кадры) : 0.171
Размер потока : 674 Мбайт (90%)
Библиотека кодирования : XviD 65

Аудио
Идентификатор : 1
Формат : MPEG Audio
Версия формата : Version 1
Профиль формата : Layer 3
Режим : Joint stereo
Расширение режима : MS Stereo
Идентификатор кодека : 55
Идентификатор кодека/Подсказка : MP3
Продолжительность : 1 ч. 11 м.
Вид битрейта : Постоянный
Битрейт : 128 Кбит/сек
Каналы : 2 канала
Частота : 48,0 КГц
Метод сжатия : С потерями
Размер потока : 65,8 Мбайт (9%)
Выравнивание : Соединение по промежуткам
Продолжительность промежутка : 40 мс. (1,00 видеокадр)
Время предзагрузки промежутка : 504 мс.



Скачать Дорогая.мы.себя.уменьшили.Honey.We.Shrunk.Ourselves.(Дин.Канди).[1997.фантастика.боевик.комедия.приключения.семейный.DVDRip].[MVO]+[Оригинал].torrent без регистрации
Золото ЗОЛОТАЯ РАЗДАЧА! СКАЧАННОЕ НЕ ЗАСЧИТЫВАЕТСЯ! Золото
Дата: Зарегистрирован   [ Тип: внутренний ] Как тут cкачать?
MAGNET ссылка
MAGNET ссылка


Скачать .torrent

15 KB

Статус: проверено DHT
Скачан: торрент - 116 раз, раздача полностью - 14 раз
Размер: 745 MB
Оценка:  5 (Голосов: 1)
Поблагодарили: 3
Поделиться ссылкой на эту раздачу с друзьями:
В контактеFacebookОдноклассникиTwitterLivejournalМой МирLiveinternet
 

 
Показать сообщения:    


Вы не можете начинать темы
Вы не можете отвечать на сообщения
Вы не можете редактировать свои сообщения
Вы не можете удалять свои сообщения
Вы не можете голосовать в опросах
Вы не можете прикреплять файлы к сообщениям
Вы можете скачивать файлы