Loading...
Error

Скачать Четыре комнаты / Four Rooms (Роберт Родригес, Квентин Тарантино ) [1995, Комедия, VHSRip] [Неофициальная версия] [AVO] (Сергей Визгунов) торрент без регистрации

 
Статистика раздачи
Размер:  1,43 GB   |    Скачан:  156 раз
Сидов:  2  [  0 KB/s  ]  
 
Автор Сообщение

leon030982

[] 

Четыре комнаты / Four Rooms / неофициальная версия





Год выпуска: 1995
Страна: США
Жанр: Комедия
Продолжительность: 01:50:56
Перевод: Авторский (одноголосый, закадровый)[Сергей Визгунов]
Cубтитры: нет

Режиссер: Эллисон Андерс / Allison Anders/, Александр Роквэлл / Alexandre Rockwell/, Роберт Родригес / Robert Rodriguez/, Квентин Тарантино / Quentin Tarantino

В ролях: Тим Рот, Мадонна, Валерия Голино, Антонио Бандерас, Сальма Хайек, Квентин Тарантино, Брюс Уиллис, Мариса Томей, Сэмми Дэвис, Аманда Де Кадене, Айони Скай, Лили Тейлор, Алисия Уитт, Дженнифер Билз, Дэвид Провэл, Лана МакКиссак, Патриция Вонне, Тэмлин Томита, Пол Кэлдерон, Лоуренс Бендер, Кэти Гриффин, Марк Лоуренс, Кимберли Блэр
Описание: Озорной фильм авторов-единомышленников, пользующихся полускандальным успехом во всем мире, состоит из четырех новелл (каждый сделал по одной), связанных одним действующим лицом - коридорным Тедом (очень интересная игра Рота), вышедшим на работу в первый раз в канун Нового года. Он "сдает" сперму на шабаше ведьм, чуть не погибает от руки ревнивого мужа, еле уносит ноги от шаловливых детишек гангстера (Бандерас), а в пентхаузе отрубает палец одному из гостей по условиям пари - выиграл Тарантино. Впервые на экране Лэна МакКиссэк, Дэнни Вердуско. Мне фильм очень и очень понравился своей искрящейся, легкой одаренностью и молодостью - он, как брызги шампанского "кристалл", которое так любит Тарантино. На пиратском рынке фильм "гулял" под названием "Странное варево". (c) Иванов М.


Качество: VHSRip
Формат: AVI
Видео кодек: XviD
Аудио кодек: AC3
Видео: 720x384 (1.88:1), 25 fps, XviD build 73 ~1642 kbps avg, 0.24 bit/pixel
Аудио: 48 kHz, AC3 Dolby Digital, 2/0 (L,R) ch, ~192 kbps
Этот вариант фильма можно отнести к раритету, так как он значительно отличается по сюжету от официальной версии.И по продолжительности на 14 минут дольше.На DVD не издавалась
Вот некоторые отличия: в оф. версии вырезан (в ущерб сюжету) приличный кусок, когда Тэд договаривается со своей напарницей, что отдежурит за неё в рождественскую ночь и получает за это первые 50$. Впоследствии Тэд девушке звонит, но без вырезанной предыстории вообще трудно понять, кто она такая и откуда взялась. Первая новелла закончилась провалом попытки воскрешения богини и фразой "...на следующий год попробуем со спермой девственника...", на оф. версии богиня воскресла. Во второй новелле тоже вырезан большой кусок, где Тэд пьёт виски в обнимку с Зигфридом, а затем Анжела стреляет из пистолета, есть и другие отличия, в результате официальная версия заметно укоротилась.
Столь раритетный материал предоставлен Night@Day. Вся ацкая работа по оцифровке и чистке видео файла сделана героем под ником argus-x59
E:\INTERNET\Strange brew (Vizgunov) (VHSRip) by A.P..avi
General
Complete name : E:\INTERNET\Strange brew (Vizgunov) (VHSRip) by A.P..avi
Format : AVI
Format/Info : Audio Video Interleave
File size : 1.43 GiB
Duration : 1h 50mn
Overall bit rate : 1 844 Kbps
Writing application : VirtualDubMod 1.5.10.3
Writing library : VirtualDubMod build 2550/release
Video #0
ID : 0
Format : MPEG-4 Visual
Format profile : Advanced Simple@L5
Format settings, BVOP : 2
Format settings, QPel : No
Format settings, GMC : No warppoints
Format settings, Matrix : Custom
Codec ID : XVID
Codec ID/Hint : XviD
Duration : 1h 50mn
Bit rate : 1 643 Kbps
Width : 720 pixels
Height : 384 pixels
Display aspect ratio : 1.85:1
Frame rate : 25.000 fps
Color space : YUV
Chroma subsampling : 4:2:0
Bit depth : 8 bits
Scan type : Progressive
Compression mode : Lossy
Bits/(Pixel*Frame) : 0.238
Stream size : 1.27 GiB (89%)
Writing library : XviD 73
Audio #1
ID : 1
Format : AC-3
Format/Info : Audio Coding 3
Mode extension : CM (complete main)
Format settings, Endianness : Big
Codec ID : 2000
Duration : 1h 50mn
Bit rate mode : Constant
Bit rate : 192 Kbps
Channel(s) : 2 channels
Channel positions : Front: L R
Sampling rate : 48.0 KHz
Bit depth : 16 bits
Compression mode : Lossy
Stream size : 152 MiB (10%)
Alignment : Split accross interleaves
Interleave, duration : 40 ms (1.00 video frame)
Interleave, preload duration : 500 ms



Скачать Четыре.комнаты.Four.Rooms.(Роберт.Родригес.Квентин.Тарантино.).[1995.Комедия.VHSRip].[Неофициальная.версия].[AVO].(Сергей.Визгунов).torrent без регистрации
Золото ЗОЛОТАЯ РАЗДАЧА! СКАЧАННОЕ НЕ ЗАСЧИТЫВАЕТСЯ! Золото
Дата: Зарегистрирован   [ Тип: внешний ] Как тут cкачать?
MAGNET ссылка
MAGNET ссылка


Скачать .torrent

15 KB

Статус: проверено DHT
Скачан: торрент - 156 раз, раздача полностью - 7 раз
Размер: 1,43 GB
Оценка:  5 (Голосов: 1)
Поблагодарили: 3
Поделиться ссылкой на эту раздачу с друзьями:
В контактеFacebookОдноклассникиTwitterLivejournalМой МирLiveinternet
 

 

julika38

[] 

О да! Нашла! Спасибо за ацкий труд! ay
 
Показать сообщения:    


Вы не можете начинать темы
Вы не можете отвечать на сообщения
Вы не можете редактировать свои сообщения
Вы не можете удалять свои сообщения
Вы не можете голосовать в опросах
Вы не можете прикреплять файлы к сообщениям
Вы можете скачивать файлы