Loading...
Error

Скачать Демоны Да Винчи / Da Vinci's Demons (сезон 01) (2013, фэнтези, драма, приключения, история, HDTVRip] 2x[MVO (AlexFilm, Jaskier)] торрент без регистрации

 
Статистика раздачи
Размер:  4,87 GB   |    Скачан:  230 раз
Сидов:  1  [  0 KB/s  ]  
 
Автор Сообщение

МихаНЕзатор

[] 

«История есть ложь».
Год выпуска: 2013
Страна: США
Жанр: фэнтези, драма, приключения, история
Продолжительность: 00:58:51
Перевод:1) Профессиональный (многоголосый закадровый)(AlexFilm)
2) Профессиональный (многоголосый закадровый)(Jaskier)
Cубтитры: Русские(TVdaVinci,Jaskier),Английские
Режиссер: Майкл Дж. Бассетт, Дэвид С. Гойер, Джэми Пэйн, .
Сценарий: Дэвид С. Гойер, Скотт М. Гимпл, Брайан Нельсон,
Продюсер: Кортни Б. Конте, Джули Гарднер, Джон Мартини,
Оператор: Джулиан Корт, Фабиан Вагнер
Композитор: Беар МакКрири
Художник: Эдвард Томас, Энни Саймонс, Дэвид Морисон
Монтаж: Ник Артурс, Тим Мёрелл

В ролях: Том Райли / Tom Riley (Leonardo Da Vinci), Лаура Хэддок / Laura Haddock (Lucrezia Donati), Йен Пири / Ian Pirie (Captain Dragonetti), Эрос Влахос / Eros Vlahos (Nico), Грегг Чиллин / Gregg Chillin (Zoroaster), Лара Пулвер / Lara Pulver (Clarice Orsini), Гера Хилмарсдоттир / Hera Hilmarsdottir (Vanessa), Том Бейтман / Tom Bateman (Giulino Medici)



Описание:В мире, где мысль и вера находятся под контролем, один человек борется за то, чтобы сделать знания доступными для всех. Не рассказанная история трагичной жизни Леонардо Да Винчи раскрывает портрет молодого человека, которого мучает дар гения. Он еретик, жаждущий раскрыть ложь религии. Бунтарь, стремящийся низвергнуть элитарное общество. Незаконнорожденный сын, требующий от своего отца признания его прав.Он оказывается посреди разразившегося урагана страстей, который спал веками. Внутри конфликта между правдой и ложью, религией и интеллектом, прошлым и будущим. Его стремления используются против него противоборствующими силами того времени, вовлекая его в соблазнительную игру, в которой те, кто презирает его ум, нуждаются в нём больше всего.Леонардо должен вступить в конфронтацию с теми, кто использует историю, чтобы скрыть истину. Вооружённый лишь собственным гением Да Винчи в одиночку противостоит тьме как внутри, так и снаружи. Перед лицом неопределённости будущего его поход за знаниями едва не становится для него погибелью, когда он переходит за грань своего здравомыслия. Да Винчи, словно в омут с головой, уходит в собственные гениальные идеи, воплотив которые, становится необоримой силой, вытаскивающей из темноты и поворачивающей к свету целую эпоху.Его история становится зеркалом для нашего мира, зовущее всех нас на бой за Свободное Будущее.
Премьера (мир): 12 апреля 2013, ...
Премьера (РФ): 26 апреля 2013
Рейтинг ВКИП: запрещено для детей

трейлер
Качество: HDTVRip
Формат: AVI
Видео кодек: ]XviD
Аудио кодеk: MP3
Видео: 656x368 (16:9), 23.976 fps, XviD, 1 068 Kbps
Аудио:
Аудио #1: MP3, 128 Kbps, 48.0 KHz, 2 ch Rus MVO(AlexFilm)

Аудио #2: MP3, 128 Kbps, 48.0 KHz, 2 ch Rus MVO (Jaskier)
Аудио #3: MP3, 128 Kbps, 48.0 KHz, 2 ch Eng

25.06.2013 г. торент обновлён, добавлена 8 серия, сезон полностью!

Код:

General
Complete name                    : 01.The Hanged Man.avi
Format                           : AVI
Format/Info                      : Audio Video Interleave
File size                        : 619 MiB
Duration                         : 58mn 51s
Overall bit rate                 : 1 471 Kbps
Movie name                       : 01.The Hanged Man
Director                         : Semak(Scorpiоn)
Writing application              : VirtualDubMod 1.5.10.3 | www.virtualdub-fr.org || (build 2550/release)

Video
ID                               : 0
Format                           : MPEG-4 Visual
Format profile                   : Advanced Simple@L5
Format settings, BVOP            : Yes
Format settings, QPel            : No
Format settings, GMC             : No warppoints
Format settings, Matrix          : Default (H.263)
Codec ID                         : XVID
Codec ID/Hint                    : XviD
Duration                         : 58mn 51s
Bit rate                         : 1 068 Kbps
Width                            : 656 pixels
Height                           : 368 pixels
Display aspect ratio             : 16:9
Frame rate                       : 23.976 fps
Color space                      : YUV
Chroma subsampling               : 4:2:0
Bit depth                        : 8 bits
Scan type                        : Progressive
Bits/(Pixel*Frame)               : 0.185
Stream size                      : 450 MiB (73%)
Writing library                  : XviD 73

Audio #1
ID                               : 1
Format                           : MPEG Audio
Format version                   : Version 1
Format profile                   : Layer 3
Codec ID                         : 55
Codec ID/Hint                    : MP3
Duration                         : 58mn 51s
Bit rate mode                    : Constant
Bit rate                         : 128 Kbps
Channel(s)                       : 2 channels
Sampling rate                    : 48.0 KHz
Stream size                      : 53.9 MiB (9%)
Alignment                        : Aligned on interleaves
Interleave, duration             : 42 ms (1.00 video frame)
Interleave, preload duration     : 504 ms
Writing library                  : LAME3.99r
Encoding settings                : -m s -V 4 -q 2 -lowpass 17 -b 128

Audio #2
ID                               : 2
Format                           : MPEG Audio
Format version                   : Version 1
Format profile                   : Layer 3
Codec ID                         : 55
Codec ID/Hint                    : MP3
Duration                         : 58mn 51s
Bit rate mode                    : Constant
Bit rate                         : 128 Kbps
Channel(s)                       : 2 channels
Sampling rate                    : 48.0 KHz
Stream size                      : 53.9 MiB (9%)
Alignment                        : Aligned on interleaves
Interleave, duration             : 42 ms (1.00 video frame)
Interleave, preload duration     : 504 ms
Writing library                  : LAME3.99r
Encoding settings                : -m s -V 4 -q 2 -lowpass 17 -b 128

Audio #3
ID                               : 3
Format                           : MPEG Audio
Format version                   : Version 1
Format profile                   : Layer 3
Codec ID                         : 55
Codec ID/Hint                    : MP3
Duration                         : 58mn 51s
Bit rate mode                    : Constant
Bit rate                         : 128 Kbps
Channel(s)                       : 2 channels
Sampling rate                    : 48.0 KHz
Stream size                      : 53.9 MiB (9%)
Alignment                        : Aligned on interleaves
Interleave, duration             : 42 ms (1.00 video frame)
Interleave, preload duration     : 504 ms
Writing library                  : LAME3.99r
Encoding settings                : -m s -V 4 -q 2 -lowpass 17 -b 128

Сезон 1
1.01 Повешенный / The Hanged Man (12.04.2013)
1.02 The Serpent (19.04.2013)
1.03 The Prisoner (26.04.2013)
1.04 The Magician (03.05.2013)
1.05 The Tower (10.05.2013)
1.06 The Devil (17.05.2013)
1.07 The Hierophant (24.05.2013)
1.08 The Lovers (31.05.2013)



Скачать Демоны.Да.Винчи.Da.Vinci's.Demons.(сезон.01).(2013.фэнтези.драма.приключения.история.HDTVRip].2x[MVO.(AlexFilm.Jaskier)].torrent без регистрации
Золото ЗОЛОТАЯ РАЗДАЧА! СКАЧАННОЕ НЕ ЗАСЧИТЫВАЕТСЯ! Золото
Дата: Зарегистрирован   [ Тип: внутренний ] Как тут cкачать?
MAGNET ссылка
MAGNET ссылка


Скачать .torrent

197 KB

Статус: проверено DHT
Скачан: торрент - 230 раз, раздача полностью - 65 раз
Размер: 4,87 GB
Оценка:  5 (Голосов: 4)
Поблагодарили: 9
Поделиться ссылкой на эту раздачу с друзьями:
В контактеFacebookОдноклассникиTwitterLivejournalМой МирLiveinternet
 

 

МихаНЕзатор

[] 

Раздача обновлена
 
Показать сообщения:    


Вы не можете начинать темы
Вы не можете отвечать на сообщения
Вы не можете редактировать свои сообщения
Вы не можете удалять свои сообщения
Вы не можете голосовать в опросах
Вы не можете прикреплять файлы к сообщениям
Вы можете скачивать файлы