Loading...
Error

Скачать Не грози южному централу, попивая сок у себя в квартале / Don't Be a Menace to South Central While Drinking Your Juice in the Hood (Пэрис Барклай / Paris Barclay) [1996, комедия, криминал, DVDRip] [Fullscreen version] 2x[AVO] (Goblin, Санаев) торрент без регистрации

 
Статистика раздачи
Размер:  1,69 GB   |    Скачан:  217 раз
Сидов:  1  [  0 KB/s  ]  
 
Автор Сообщение

leon030982

[] 

Не грози южному централу, попивая сок у себя в квартале / Don't Be a Menace to South Central While Drinking Your Juice in the Hood / Theatrical Cut / Fullscreen version


Год выпуска: 1996
Страна: США
Жанр: комедия, криминал
Продолжительность: 01:25:16
Перевод 1: Авторский (одноголосый закадровый) Дмитрий Пучков aka Goblin
Перевод 2: Авторский (одноголосый закадровый) Павел Санаев
Перевод 3: Профессиональный (двухголосый закадровый) West Video
Cубтитры: нет
Режиссер: Пэрис Барклай / Paris Barclay

В ролях: Шон Уайанс, Марлон Уайанс, Трэйси Черелл Джонс, Вивиан Смоллвуд, Крис Спенсер, Хелен Мартин, Сули МакКалло, Даррел Хит, Айзиа Барнс, Ламард Дж. Тейт
Описание: Молодой афроамериканец по прозвищу Пепельница переезжает в Лос-Анджелес со своим отцом и бабушкой. Пепельница гордится тем, что они с отцом выглядят ровесниками, это, по его мнению, «очень круто». Гордится он и своей бабушкой, которая в свои-то преклонные годы покуривает и не стесняется крепких словечек. Вскоре Пепельница знакомится со своим кузеном по прозвищу Цепной Пес. Этот парень — гангстер, в его личном арсенале не только пистолеты и автомат, но и термоядерная боеголовка — «для самозащиты». Пепельница должен выбрать свой дальнейший путь в жизни: он может быть «просто хорошим чернокожим» или стать «опасным чернокожим», примкнув к банде своего кузена.


Качество видео: DVDRip
Формат видео: AVI
Видео: 704x512 (1.38:1), 25 fps, XviD build 65 ~1796 kbps avg, 0.20 bit/pixel
Аудио 1: 48 kHz, AC3 Dolby Digital, 3/2 (L,C,R,l,r) + LFE ch, ~448 kbps Goblin
Аудио 2: 48 kHz, AC3 Dolby Digital, 2/0 (L,R) ch, ~192 kbps Санаев
Аудио 3: 48 kHz, AC3 Dolby Digital, 3/2 (L,C,R,l,r) + LFE ch, ~384 kbps West Video[Отдельно]

В фильме плавающий кроп (справа) Во всех 3-х озвучках присутствует ненормативная лексика.
General
Complete name : E:\Рипы фильмов\Don't Be a Menace.Theatrical Cut.Fullscreen version.1996.DUALRUS.DVDRip.XviD.AC3\Don't Be a Menace.Theatrical Cut.Fullscreen version.1996.DUALRUS.DVDRip.XviD.AC3.avi
Format : AVI
Format/Info : Audio Video Interleave
File size : 1.46 GiB
Duration : 1h 25mn
Overall bit rate : 2 452 Kbps
Writing application : VirtualDubMod 1.5.10.2 (build 2540/release)
Writing library : VirtualDubMod build 2540/release
Video
ID : 0
Format : MPEG-4 Visual
Format profile : Advanced Simple@L5
Format settings, BVOP : 1
Format settings, QPel : No
Format settings, GMC : No warppoints
Format settings, Matrix : Custom
Codec ID : XVID
Codec ID/Hint : XviD
Duration : 1h 25mn
Bit rate : 1 797 Kbps
Width : 704 pixels
Height : 512 pixels
Display aspect ratio : 1.375
Frame rate : 25.000 fps
Color space : YUV
Chroma subsampling : 4:2:0
Bit depth : 8 bits
Scan type : Progressive
Compression mode : Lossy
Bits/(Pixel*Frame) : 0.199
Stream size : 1.07 GiB (73%)
Writing library : XviD 65
Audio #1
ID : 1
Format : AC-3
Format/Info : Audio Coding 3
Mode extension : CM (complete main)
Format settings, Endianness : Big
Codec ID : 2000
Duration : 1h 25mn
Bit rate mode : Constant
Bit rate : 448 Kbps
Channel(s) : 6 channels
Channel positions : Front: L C R, Side: L R, LFE
Sampling rate : 48.0 KHz
Bit depth : 16 bits
Compression mode : Lossy
Stream size : 273 MiB (18%)
Alignment : Split accross interleaves
Interleave, duration : 40 ms (1.00 video frame)
Interleave, preload duration : 500 ms
Audio #2
ID : 2
Format : AC-3
Format/Info : Audio Coding 3
Mode extension : CM (complete main)
Format settings, Endianness : Big
Codec ID : 2000
Duration : 1h 25mn
Bit rate mode : Constant
Bit rate : 192 Kbps
Channel(s) : 2 channels
Channel positions : Front: L R
Sampling rate : 48.0 KHz
Bit depth : 16 bits
Compression mode : Lossy
Stream size : 117 MiB (8%)
Alignment : Split accross interleaves
Interleave, duration : 40 ms (1.00 video frame)
Interleave, preload duration : 500 ms




Скачать Не.грози.южному.централу.попивая.сок.у.себя.в.квартале.Don't.Be.a.Menace.to.South.Central.While.Drinking.Your.Juice.in.the.Hood.(Пэрис.Барклай.Paris.Barclay).[1996.комедия.криминал.DVDRip].[Fullscreen.version].2x[AVO].(Goblin.Санаев).torrent без регистрации
Золото ЗОЛОТАЯ РАЗДАЧА! СКАЧАННОЕ НЕ ЗАСЧИТЫВАЕТСЯ! Золото
Дата: Зарегистрирован   [ Тип: внутренний ] Как тут cкачать?
MAGNET ссылка
MAGNET ссылка


Скачать .torrent

18 KB

Статус: проверено DHT
Скачан: торрент - 217 раз, раздача полностью - 843 раз
Размер: 1,69 GB
Оценка:  5 (Голосов: 3)
Поблагодарили: 5
Поделиться ссылкой на эту раздачу с друзьями:
В контактеFacebookОдноклассникиTwitterLivejournalМой МирLiveinternet
 

 
Показать сообщения:    


Вы не можете начинать темы
Вы не можете отвечать на сообщения
Вы не можете редактировать свои сообщения
Вы не можете удалять свои сообщения
Вы не можете голосовать в опросах
Вы не можете прикреплять файлы к сообщениям
Вы можете скачивать файлы