Loading...
Error

Скачать Проси только алмазы / Just Ask for Diamond (Стивен Байли / Stephen Bayly) [1988, комедия, криминал, семейный, DVDRip] [AVO] (Юрий Сербин) торрент без регистрации

 
Статистика раздачи
Размер:  749 MB   |    Скачан:  115 раз
Сидов:  1  [  0 KB/s  ]  
 
Автор Сообщение

leon030982

[] 


Проси только алмазы / Just Ask for Diamond



Год выпуска: 1988
Выпущено: Великобритания
Жанр: комедия, криминал, семейный
Продолжительность: 01:20:10
Перевод: Профессиональный (одноголосый)[Юрий Сербин]
Субтитры: нет

Режиссер: Стивен Байли / Stephen Bayly

В ролях: Колин Дэйл, Саид Джаффри, Дарсли МакЛинден, Хосе Рене Руис, Майкл Роббинс, Дональд Стэнден, Патриция Ходж, Джим МакМанус, Джимми Наил, Рой Киннер...

Описание: Карлик передаёт на хранение коробку самому некомпетентному частному детективу Джиму Даймонду. В этот же день карлика находят мертвым. Распаковав коробку, Джим вместе со своим младшим братом выясняют, что это всего лишь коробка конфет. Что может таиться в коробке конфет и почему ей интересуются, чуть ли не все мафиозники Европы?







Качество: DVDRip
Формат: AVI
Видео кодек: XviD
Аудио кодек: AC3
Видео: 688x368 (1.87:1), 25 fps, XviD build 50 ~1199 kbps avg, 0.19 bit/pixel
Аудио: 48 kHz, AC3 Dolby Digital, 1/0 (C) ch, ~96 kbps

Автор рипа - Dreven
За оцифровку VHS с переводом Сербина спасибо Fikaloid.
General
Complete name : C:\Just Ask For Diamond.avi
Format : AVI
Format/Info : Audio Video Interleave
File size : 749 MiB
Duration : 1h 20mn
Overall bit rate : 1 306 Kbps
Writing application : VirtualDubMod 1.5.10.3 (build 2550/release)
Writing library : VirtualDubMod build 2550/release

Video
ID : 0
Format : MPEG-4 Visual
Format profile : Advanced Simple@L5
Format settings, BVOP : 2
Format settings, QPel : No
Format settings, GMC : No warppoints
Format settings, Matrix : Default (MPEG)
Codec ID : XVID
Codec ID/Hint : XviD
Duration : 1h 20mn
Bit rate : 1 200 Kbps
Width : 688 pixels
Height : 368 pixels
Display aspect ratio : 1.85:1
Frame rate : 25.000 fps
Color space : YUV
Chroma subsampling : 4:2:0
Bit depth : 8 bits
Scan type : Progressive
Compression mode : Lossy
Bits/(Pixel*Frame) : 0.190
Stream size : 688 MiB (92%)
Writing library : XviD 1.2.1 (UTC 2008-12-04)

Audio
ID : 1
Format : AC-3
Format/Info : Audio Coding 3
Mode extension : CM (complete main)
Format settings, Endianness : Big
Codec ID : 2000
Duration : 1h 20mn
Bit rate mode : Constant
Bit rate : 96.0 Kbps
Channel(s) : 1 channel
Channel positions : Front: C
Sampling rate : 48.0 KHz
Bit depth : 16 bits
Compression mode : Lossy
Stream size : 55.0 MiB (7%)
Alignment : Split accross interleaves
Interleave, duration : 40 ms (1.00 video frame)
Interleave, preload duration : 500 ms





Скачать Проси.только.алмазы.Just.Ask.for.Diamond.(Стивен.Байли.Stephen.Bayly).[1988.комедия.криминал.семейный.DVDRip].[AVO].(Юрий.Сербин).torrent без регистрации
Золото ЗОЛОТАЯ РАЗДАЧА! СКАЧАННОЕ НЕ ЗАСЧИТЫВАЕТСЯ! Золото
Дата: Зарегистрирован   [ Тип: внутренний ] Как тут cкачать?
MAGNET ссылка
MAGNET ссылка


Скачать .torrent

15 KB

Статус: проверено DHT
Скачан: торрент - 115 раз, раздача полностью - 10 раз
Размер: 749 MB
Оценка:  5 (Голосов: 2)
Поблагодарили: 2
Поделиться ссылкой на эту раздачу с друзьями:
В контактеFacebookОдноклассникиTwitterLivejournalМой МирLiveinternet
 

 
Показать сообщения:    


Вы не можете начинать темы
Вы не можете отвечать на сообщения
Вы не можете редактировать свои сообщения
Вы не можете удалять свои сообщения
Вы не можете голосовать в опросах
Вы не можете прикреплять файлы к сообщениям
Вы можете скачивать файлы