Loading...
Error

Скачать Остаться в живых (Потерянные) / LOST (сезоны 1-6, серии 1-122 из 122) (Джей Джей Абрамс) [2004-2010 г., приключения, драма, триллер, 480p, BDRip-AVC] Dub (Первый канал)+ MVO (Tycoon) + MVO (LostFilm) + AVO (Ю.Немахов) + Original + Subs торрент без регистрации

 
Статистика раздачи
Размер:  111,67 GB   |    Скачан:  590 раз
Сидов:  1  [  0 KB/s  ]  
 
Автор Сообщение

МихаНЕзатор

[] 



Остаться в Живых / LOST


Год выпуска: 2004
Страна: США
Жанр: фантастика, триллер, драма, приключения, детектив,
Продолжительность: ~ 00:43:00
Перевод: Профессиональный многоголосный, закадровый; Профессиональный полное дублирование
Русские субтитры: есть
Режиссёр: Джей Джей Абрамс / J.J. Abrams

В ролях: Джаред Мэтью Фокс, Эвангелина Лили, Доминик Монаган, Гарольд Перрино-мл., Джордж Гарсия, Малкольм Дэвид Келли, Фредерик Ленн, Джон Диксон, Майкл Артур и др.

Описание:
Авиалайнер совершал полет над Тихим океаном и рухнул на один из его островов. С этой минуты остаться в живых станет целью для 48 уцелевших пассажиров. В экстремальной ситуации человек открывается таким, каким его раньше никто не знал. Кажется, все оказываются в общей беде. Но кто-то паникует, а кто-то обнаруживает в себе качества лидера, чтобы повести оставшихся за собой. Идти вперед - значит выжить. Поддаться общему настроению, допустить сомнения в свою душу - означает погубить не только себя, но и всех остальных. Положение уцелевших усугубляет таинственный остров. Жертвы авиакатастрофы должны победить все опасности, которыми это местечко в Тихом океане пытается их погубить. Остров расставляет для спутников опасные ловушки, тот кто не может справиться - погибает.



Качество: BDRip 480p
Формат: MKV
Видео кодек: H.264
Аудио кодек: AC3
Видео: 720х400 (1.78:1), 23.976 fps ~1397 kbps avg, 0.203 bit/pixel
Аудио # 1: Rus 48 kHz, Dolby Digital 2.0 @ 192 kbps (Дубляж)
Аудио # 2: Rus 48 kHz, Dolby Digital 5.1 @ 384 kbps (Tycoon)
Аудио # 3: Eng 48 kHz, Dolby Digital 5.1 @ 448 kbps
Субтитры: Russian, ASS (Форсированные), Russian, ASS (Полные), English, SRT (Полные).
General
Format : Matroska
File size : 792 MiB
Duration : 42mn 20s
Overall bit rate : 2 616 Kbps
Encoded date : UTC 2010-10-18 09:19:32
Writing application : mkvmerge v4.1.1 ('Bouncin' Back') сборка от Jul 3 2010 22:54:08
Writing library : libebml v1.0.0 + libmatroska v1.0.0
Video
ID : 1
Format : AVC
Format/Info : Advanced Video Codec
Format profile : High@L4.1
Format settings, CABAC : Yes
Format settings, ReFrames : 9 frames
Muxing mode : Container profile=Unknown@4.1
Codec ID : V_MPEG4/ISO/AVC
Duration : 42mn 20s
Bit rate : 1 400 Kbps
Width : 720 pixels
Height : 400 pixels
Display aspect ratio : 16:9
Frame rate : 23.976 fps
Color space : YUV
Chroma subsampling : 4:2:0
Bit depth : 8 bits
Scan type : Progressive
Bits/(Pixel*Frame) : 0.203
Stream size : 408 MiB (52%)
Writing library : x264 core 105 r1724+278 a6d5907
Encoding settings : cabac=1 / ref=9 / deblock=1:-1:-1 / analyse=0x3:0x113 / me=umh / subme=10 / psy=1 / fade_compensate=0.00 / psy_rd=0.60:0.00 / mixed_ref=0 / me_range=32 / chroma_me=1 / trellis=2 / 8x8dct=1 / cqm=0 / deadzone=21,11 / fast_pskip=0 / chroma_qp_offset=-2 / threads=3 / sliced_threads=0 / nr=0 / decimate=0 / interlaced=0 / constrained_intra=0 / fgo=0 / bframes=9 / b_pyramid=2 / b_adapt=2 / b_bias=0 / direct=3 / weightb=1 / open_gop=0 / weightp=2 / keyint=250 / keyint_min=23 / scenecut=40 / intra_refresh=0 / rc_lookahead=60 / rc=2pass / mbtree=0 / bitrate=1400 / ratetol=1.0 / qcomp=0.80 / qpmin=9 / qpmax=28 / qpstep=4 / cplxblur=20.0 / qblur=0.5 / vbv_maxrate=62500 / vbv_bufsize=50000 / ip_ratio=1.40 / pb_ratio=1.30 / aq=1:0.90 / nal_hrd=none
Color primaries : BT.709-5, BT.1361, IEC 61966-2-4, SMPTE RP177
Transfer characteristics : BT.709-5, BT.1361
Matrix coefficients : BT.709-5, BT.1361, IEC 61966-2-4 709, SMPTE RP177
Audio #1
ID : 2
Format : AC-3
Format/Info : Audio Coding 3
Format profile : Dolby Digital
Mode extension : CM (complete main)
Codec ID : A_AC3
Duration : 42mn 20s
Bit rate mode : Constant
Bit rate : 320 Kbps
Channel(s) : 2 channels
Channel positions : Front: L R
Sampling rate : 48.0 KHz
Bit depth : 16 bits
Stream size : 96.9 MiB (12%)
Title : Дубляж
Language : Russian
Audio #2
ID : 3
Format : AC-3
Format/Info : Audio Coding 3
Mode extension : CM (complete main)
Codec ID : A_AC3
Duration : 42mn 20s
Bit rate mode : Constant
Bit rate : 448 Kbps
Channel(s) : 6 channels
Channel positions : Front: L C R, Side: L R, LFE
Sampling rate : 48.0 KHz
Bit depth : 16 bits
Stream size : 136 MiB (17%)
Title : Tycoon
Language : Russian
Audio #3
ID : 4
Format : AC-3
Format/Info : Audio Coding 3
Mode extension : CM (complete main)
Codec ID : A_AC3
Duration : 42mn 20s
Bit rate mode : Constant
Bit rate : 448 Kbps
Channel(s) : 6 channels
Channel positions : Front: L C R, Side: L R, LFE
Sampling rate : 48.0 KHz
Bit depth : 16 bits
Stream size : 136 MiB (17%)
Title : Original
Text #1
ID : 5
Format : ASS
Codec ID : S_TEXT/ASS
Codec ID/Info : Advanced Sub Station Alpha
Title : Форсированные
Language : Russian
Text #2
ID : 6
Format : ASS
Codec ID : S_TEXT/ASS
Codec ID/Info : Advanced Sub Station Alpha
Title : Полные
Language : Russian
Text #3
ID : 7
Format : ASS
Codec ID : S_TEXT/ASS
Codec ID/Info : Advanced Sub Station Alpha
Title : Полные
Text #4
ID : 8
Format : ASS
Codec ID : S_TEXT/ASS
Codec ID/Info : Advanced Sub Station Alpha
Title : Комментарии
x264 [info]: frame I:28 Avg QP:11.98 size: 32537
x264 [info]: frame P:692 Avg QP:12.63 size: 7436
x264 [info]: frame B:1437 Avg QP:16.72 size: 6390
x264 [info]: consecutive B-frames: 12.8% 6.4% 2.0% 31.2% 12.4% 25.9% 4.9% 3.0% 0.8% 0.5%
x264 [info]: mb I I16..4: 57.7% 24.5% 17.7%
x264 [info]: mb P I16..4: 0.9% 5.6% 0.9% P16..4: 15.4% 7.3% 3.3% 0.0% 0.0% skip:66.6%
x264 [info]: mb B I16..4: 0.2% 1.8% 0.3% B16..8: 23.5% 7.7% 2.3% direct: 8.5% skip:55.8% L0:35.3% L1:39.9% BI:24.8%
x264 [info]: 8x8 transform intra:64.7% inter:57.1%
x264 [info]: direct mvs spatial:91.4% temporal:8.6%
x264 [info]: coded y,uvDC,uvAC intra: 76.3% 70.8% 55.6% inter: 21.7% 12.5% 3.7%
x264 [info]: i16 v,h,dc,p: 79% 3% 7% 11%
x264 [info]: i8 v,h,dc,ddl,ddr,vr,hd,vl,hu: 9% 10% 15% 9% 11% 10% 11% 11% 14%
x264 [info]: i4 v,h,dc,ddl,ddr,vr,hd,vl,hu: 10% 8% 10% 10% 13% 12% 11% 11% 13%
x264 [info]: i8c dc,h,v,p: 55% 18% 12% 15%
x264 [info]: Weighted P-Frames: Y:1.4%
x264 [info]: ref P L0: 63.0% 3.6% 15.9% 6.3% 4.3% 2.8% 1.9% 1.2% 0.8% 0.1%
x264 [info]: ref B L0: 81.8% 11.7% 3.0% 1.5% 0.9% 0.6% 0.3% 0.1%
x264 [info]: ref B L1: 95.3% 4.7%
x264 [info]: kb/s:1355.10
encoded 61846 frames, 4.29 fps, 1355.17 kb/s


Первый сезон сериала Остаться в живых начался в США и Канаде 22 сентября 2004 и закончился 25 мая 2005 года. Он повествует о 48 выживших с рейса 815 Oceanic Airlines, который рухнул на необитаемом острове где-то в Тихом океане. В течение сезона они выясняют, что это необычный остров, и встречаются с разными опасностями.
Первый сезон шёл по средам в 20.00 в США и Канаде в 2004 году, а в 2005 году по выходным его показывали в России на Первом канале. Также в США и Канаде был показан дополнительный эпизод — Lost: The Journey 27 апреля 2005 года. После окончания сезона в 2005 году было выпущено DVD-издание.

Самолет авиакомпании Oceanic Airlines, следующий рейсом 815 из Сиднея в Лос-Анжелес, потерпел аварию и упал на необитаемый остров. В первую ночь 48 выживших услышали в джунглях загадочный рев. Наутро Джек, Кейт и Чарли нашли трансивер в кабине самолета.

Продолжительность: 42:20
Режиссер: Дж.Дж. Абрамс
Саид починил трансивер, попытался отправить сигнал бедствия и засек таинственное послание по-французски. Сойер застрелил в джунглях белого медведя.

Продолжительность: 40:24
Режиссер: Дж.Дж. Абрамс

Оказывая медицинскую помощь приставу, Джек случайно узнал о прошлом Кейт. Майкл запретил Уолту общаться с Локком. Кейт вспоминала события, которые случились с нею в Австралии.

Продолжительность: 43:31
Режиссер: Джек Бендер

Когда запасы еды в лагере подошли к концу, Локк вызвался убить кабана. Клер и Саид решили прочитать поминальную речь в честь погибших. Локк вспоминал события, которые привели его в Австралию.

Продолжительность: 42:47
Режиссер: Джек Бендер

Джек, которому явился призрак отца, нашёл в лесу пресную воду и безопасные пещеры. Также он вспоминал, как отправился в Австралию на поиски отца.

Продолжительность: 42:47
Режиссер: Джек Бендер

Джин избил Майкла, а Сун призналась ему, что знает английский. Локк узнал о наркозависимости Чарли. Спасшиеся разделились на два лагеря — часть решила уйти в пещеры, другие остались на берегу. Сун вспоминала свои напряженные отношения с Джином перед полетом.

Продолжительность: 42:52
Режиссер: Майкл Зинберг

Локк помог Чарли завязать с героином. Саид пытался вычислить, откуда транслировалось французское послание. Джека завалило в пещере, но ему удалось благополучно выбраться. Чарли вспоминал времена, когда был музыкантом и пристрастился к наркотикам.

Продолжительность: 43:24
Режиссер: Джек Бендер

Саид применил к Сойеру пытки, чтобы тот вернул лекарства Шеннон. Чарли уговаривал Клер перебраться в пещеры. Сойер вспоминал свою старую аферу, которую отменил в последний момент.

Продолжительность: 43:19
Режиссер: Такер Гейтс

Француженка пленила Саида и многое рассказала ему об острове. Херли нашёл клюшки для гольфа и устроил турнир. Саид вспоминал, как допрашивал подругу детства, когда был военным.

Продолжительность: 42:47
Режиссер: Джек Бендер

Ночные кошмары убедили Клер, что ей и ребенку угрожает опасность. Херли провел в лагере перепись населения и обнаружил лишнего человека, которого не было в списке пассажиров. Клер вспоминала, как посещала медиума.

Продолжительность: 42:55
Режиссер: Марита Грабяк

Другие похитили Клер и Чарли, и несколько их товарищей отправились им на помощь. Локк и Бун нашли в лесу подземный бункер. Джек вспоминал, как окончилась карьера его отца.

Продолжительность: 42:19
Режиссер: Стивен Уильямс

Сойер и Кейт нашли металлический кейс. Роуз утешала Чарли, переживающего из-за Клер. Саид попросил Шеннон помочь ему с переводом карт Руссо. Кейт вспоминала ограбление банка.

Продолжительность: 43:20
Режиссер: Джек Бендер

Локк дал Буну наркотик, после чего тому явилось видение о смерти Шеннон. Другие спасшиеся начинали меньше доверять Локку. Бун вспоминал о том, что привело его в Австралию.

Продолжительность: 43:24
Режиссер: Род Холкомб

Майкл запретил Уолту общаться с Локком, который учил его метать ножи, и попросил помочь построить плот. Также он вспоминал о том, как забирал Уолта из Австралии.

Продолжительность: 43:22
Режиссер: Грег Ятанес

В лагерь вернулась Клер. Итан пытался вернуть её к Другим, но ему помешали Чарли, Саид и Джек. Чарли вспоминал свой роман с богатой девушкой.

Продолжительность: 41:44
Режиссер: Кевин Хукс

Сойер объявил вендетту кабану, который ночью приходил в его палатку. Херли попросил Саида успокоить Чарли. Сойер вспоминал, что привело его в Австралию.

Продолжительность: 43:25
Режиссер: Джек Бендер

Когда Джина обвинили в поджоге плота, Сун, чтобы уладить это недоразумение, была вынуждена признаться в том, что знает английский. Саид и Шеннон начали испытывать друг к другу романтические чувства. Джин вспоминал времена, когда работал на отца Сун.

Продолжительность: 43:10
Режиссер: Такер Гейтс

Увидев на картах француженки повторяющиеся комбинации цифр, Херли ушёл в джунгли, чтобы поговорить с Даниэль. Локк пригласи Клер помочь ему кое в чём. Херли вспоминал безрадостную причину своего приезда в Австралию.

Продолжительность: 43:15
Режиссер: Дэниель Атиас

Локк и Бун нашли в лесу самолет нигерийских наркоторговцев. Внутри Бун обнаружил партию героина и рацию, однако, едва установив связь, упал на землю вместе с самолётом и получил множественные травмы. Локк вспоминал, как отец обманом заставил его пожертвовать свою почку.

Продолжительность: 42:48
Режиссер: Роберт Мендел

Пока Джек безуспешно пытался спасти умирающего Буна, Клер в лесу родила мальчика. Саид назначил Шеннон романтическое свидание на пляже. Джек вспоминал свою свадьбу.

Продолжительность: 43:22
Режиссер: Стивен Уильямс



2 СЕЗОН


Год выпуска: 2005

Страна: США
Жанр: фантастика, триллер, драма, приключения, детектив,
Продолжительность: ~ 00:43:00
Перевод: Профессиональный многоголосный, закадровый; Профессиональный полное дублирование
Русские субтитры: есть
Режиссёр: Джей Джей Абрамс / J.J. Abrams, Джек Бендер, Кевин Хукс, Майкл Зинберг, Грег Ятанес, Марита Грабяк, Стивен Уильямс, Род Холкомб, Такер Гейтс, Дэниель Атиас, Роберт Мендел
В ролях:

Джаред Мэтью Фокс, Эвангелина Лили, Доминик Монаган, Гарольд Перрино-мл., Джордж Гарсия, Малкольм Дэвид Келли, Фредерик Ленн, Джон Диксон, Майкл Артур и др.
Описание
:

Красавец-лайнер, совершающий полет из Сиднея в Лос-Анджелес, неожиданно терпит крушение. 48 пассажиров, оставшихся в живых, оказываются на пустынном острове посреди океана. Люди в панике.
Надежда быть найденными довольно призрачна. Поэтому остается только одно: собраться с силами и постараться выжить на острове, начиненном множеством опасностей…

[/b]

Качество: BDRip 480p

Формат: MKV
Видео кодек: H.264
Аудио кодек: AC3
Видео: 720х400 (1.78:1), 23.976 fps ~1397 kbps avg, 0.203 bit/pixel
Аудио # 1: Rus 48 kHz, Dolby Digital 2.0 @ 192 kbps (Дубляж)
Аудио # 2: Rus 48 kHz, Dolby Digital 5.1 @ 384 kbps (Tycoon)
Аудио # 3: Eng 48 kHz, Dolby Digital 5.1 @ 448 kbps
Субтитры: Russian, ASS (Форсированные), Russian, ASS (Полные), English, SRT (Полные).
General
Format : Matroska
File size : 792 MiB
Duration : 42mn 20s
Overall bit rate : 2 616 Kbps
Encoded date : UTC 2010-10-18 09:19:32
Writing application : mkvmerge v4.1.1 ('Bouncin' Back') сборка от Jul 3 2010 22:54:08
Writing library : libebml v1.0.0 + libmatroska v1.0.0
Video
ID : 1
Format : AVC
Format/Info : Advanced Video Codec
Format profile : High@L4.1
Format settings, CABAC : Yes
Format settings, ReFrames : 9 frames
Muxing mode : Container profile=Unknown@4.1
Codec ID : V_MPEG4/ISO/AVC
Duration : 42mn 20s
Bit rate : 1 400 Kbps
Width : 720 pixels
Height : 400 pixels
Display aspect ratio : 16:9
Frame rate : 23.976 fps
Color space : YUV
Chroma subsampling : 4:2:0
Bit depth : 8 bits
Scan type : Progressive
Bits/(Pixel*Frame) : 0.203
Stream size : 408 MiB (52%)
Writing library : x264 core 105 r1724+278 a6d5907
Encoding settings : cabac=1 / ref=9 / deblock=1:-1:-1 / analyse=0x3:0x113 / me=umh / subme=10 / psy=1 / fade_compensate=0.00 / psy_rd=0.60:0.00 / mixed_ref=0 / me_range=32 / chroma_me=1 / trellis=2 / 8x8dct=1 / cqm=0 / deadzone=21,11 / fast_pskip=0 / chroma_qp_offset=-2 / threads=3 / sliced_threads=0 / nr=0 / decimate=0 / interlaced=0 / constrained_intra=0 / fgo=0 / bframes=9 / b_pyramid=2 / b_adapt=2 / b_bias=0 / direct=3 / weightb=1 / open_gop=0 / weightp=2 / keyint=250 / keyint_min=23 / scenecut=40 / intra_refresh=0 / rc_lookahead=60 / rc=2pass / mbtree=0 / bitrate=1400 / ratetol=1.0 / qcomp=0.80 / qpmin=9 / qpmax=28 / qpstep=4 / cplxblur=20.0 / qblur=0.5 / vbv_maxrate=62500 / vbv_bufsize=50000 / ip_ratio=1.40 / pb_ratio=1.30 / aq=1:0.90 / nal_hrd=none
Color primaries : BT.709-5, BT.1361, IEC 61966-2-4, SMPTE RP177
Transfer characteristics : BT.709-5, BT.1361
Matrix coefficients : BT.709-5, BT.1361, IEC 61966-2-4 709, SMPTE RP177
Audio #1
ID : 2
Format : AC-3
Format/Info : Audio Coding 3
Format profile : Dolby Digital
Mode extension : CM (complete main)
Codec ID : A_AC3
Duration : 42mn 20s
Bit rate mode : Constant
Bit rate : 320 Kbps
Channel(s) : 2 channels
Channel positions : Front: L R
Sampling rate : 48.0 KHz
Bit depth : 16 bits
Stream size : 96.9 MiB (12%)
Title : Дубляж
Language : Russian
Audio #2
ID : 3
Format : AC-3
Format/Info : Audio Coding 3
Mode extension : CM (complete main)
Codec ID : A_AC3
Duration : 42mn 20s
Bit rate mode : Constant
Bit rate : 448 Kbps
Channel(s) : 6 channels
Channel positions : Front: L C R, Side: L R, LFE
Sampling rate : 48.0 KHz
Bit depth : 16 bits
Stream size : 136 MiB (17%)
Title : Tycoon
Language : Russian
Audio #3
ID : 4
Format : AC-3
Format/Info : Audio Coding 3
Mode extension : CM (complete main)
Codec ID : A_AC3
Duration : 42mn 20s
Bit rate mode : Constant
Bit rate : 448 Kbps
Channel(s) : 6 channels
Channel positions : Front: L C R, Side: L R, LFE
Sampling rate : 48.0 KHz
Bit depth : 16 bits
Stream size : 136 MiB (17%)
Title : Original
Text #1
ID : 5
Format : ASS
Codec ID : S_TEXT/ASS
Codec ID/Info : Advanced Sub Station Alpha
Title : Форсированные
Language : Russian
Text #2
ID : 6
Format : ASS
Codec ID : S_TEXT/ASS
Codec ID/Info : Advanced Sub Station Alpha
Title : Полные
Language : Russian
Text #3
ID : 7
Format : ASS
Codec ID : S_TEXT/ASS
Codec ID/Info : Advanced Sub Station Alpha
Title : Полные
Text #4
ID : 8
Format : ASS
Codec ID : S_TEXT/ASS
Codec ID/Info : Advanced Sub Station Alpha
Title : Комментарии
x264 [info]: frame I:28 Avg QP:11.98 size: 32537
x264 [info]: frame P:692 Avg QP:12.63 size: 7436
x264 [info]: frame B:1437 Avg QP:16.72 size: 6390
x264 [info]: consecutive B-frames: 12.8% 6.4% 2.0% 31.2% 12.4% 25.9% 4.9% 3.0% 0.8% 0.5%
x264 [info]: mb I I16..4: 57.7% 24.5% 17.7%
x264 [info]: mb P I16..4: 0.9% 5.6% 0.9% P16..4: 15.4% 7.3% 3.3% 0.0% 0.0% skip:66.6%
x264 [info]: mb B I16..4: 0.2% 1.8% 0.3% B16..8: 23.5% 7.7% 2.3% direct: 8.5% skip:55.8% L0:35.3% L1:39.9% BI:24.8%
x264 [info]: 8x8 transform intra:64.7% inter:57.1%
x264 [info]: direct mvs spatial:91.4% temporal:8.6%
x264 [info]: coded y,uvDC,uvAC intra: 76.3% 70.8% 55.6% inter: 21.7% 12.5% 3.7%
x264 [info]: i16 v,h,dc,p: 79% 3% 7% 11%
x264 [info]: i8 v,h,dc,ddl,ddr,vr,hd,vl,hu: 9% 10% 15% 9% 11% 10% 11% 11% 14%
x264 [info]: i4 v,h,dc,ddl,ddr,vr,hd,vl,hu: 10% 8% 10% 10% 13% 12% 11% 11% 13%
x264 [info]: i8c dc,h,v,p: 55% 18% 12% 15%
x264 [info]: Weighted P-Frames: Y:1.4%
x264 [info]: ref P L0: 63.0% 3.6% 15.9% 6.3% 4.3% 2.8% 1.9% 1.2% 0.8% 0.1%
x264 [info]: ref B L0: 81.8% 11.7% 3.0% 1.5% 0.9% 0.6% 0.3% 0.1%
x264 [info]: ref B L1: 95.3% 4.7%
x264 [info]: kb/s:1355.10
encoded 61846 frames, 4.29 fps, 1355.17 kb/s


Эпизод 01. Man of Science, Man of Faith / Человек науки, человек веры • [Джек]
Эпизод 02. Adrift / По течению • [Майкл]
Эпизод 03. Orientatio / Ориентирование • [Локк]
Эпизод 04. Everybody Hates Hugo / Все ненавидят Хёрли • [Херли]
Эпизод 05. ... And Found / ... И обретённое • [Сун]
Эпизод 06. Abandoned / Покинутая • [Шенон]
Эпизод 07. The Other 48 Days / Другие 48 дней • [нет]
Эпизод 08. Collision / Столкновение • [Ана Люсия]
Эпизод 09. What Kate Did / Что сделала Кейт • [Кейт]
Эпизод 10. The 23rd Psalm / 23-й псалом • [Эко]
Эпизод 11. The Hunting Party / Отряд охотников • [Джек]
Эпизод 12. Fire+Water / Огонь + вода • [Чарли]
Эпизод 13. The Long Con / Крупная афера • [Сойер]
Эпизод 14. One of Them / Один из них • [Саид]
Эпизод 15. Maternity Leave / Декретный отпуск • [Клер]
Эпизод 16. The Whole Truth / Вся правда • [Джин]
Эпизод 17. Lockdown / Взаперти • [Локк]
Эпизод 18. Dave / Дэйв • [Хёрли]
Эпизод 19. S.O.S. / C.O.C. • [Бернард/Роуз]
Эпизод 20. Two For The Road / Дорога для двоих • [Анна Люсия]
Эпизод 21. Question Mark / Знак вопроса • [Эко]
Эпизод 22. Three Minutes / Три минуты • [Майкл]
Эпизод 23. Live Together, Die Alone / Живём вместе, умираем поодиночке • [Десмонд] (Часть 1)
Эпизод 24. Live Together, Die Alone / Живём вместе, умираем поодиночке • [Десмонд] (Часть 2)


Сезон 3

Год выпуска: 2006-2007
Страна: США
Жанр: фантастика, триллер, драма, приключения, детектив,
Продолжительность: ~ 00:43:00
Перевод: Профессиональный многоголосный, закадровый; Профессиональный полное дублирование
Русские субтитры: есть
Режиссёр: Джей Джей Абрамс / J.J. Abrams, Джек Бендер, Кевин Хукс, Майкл Зинберг, Грег Ятанес, Марита Грабяк, Стивен Уильямс, Род Холкомб, Такер Гейтс, Дэниель Атиас, Роберт Мендел
В ролях:
Джаред Мэтью Фокс, Эвангелина Лили, Доминик Монаган, Гарольд Перрино-мл., Джордж Гарсия, Малкольм Дэвид Келли, Фредерик Ленн, Джон Диксон, Майкл Артур и др.
Описание:
Красавец-лайнер, совершающий полет из Сиднея в Лос-Анджелес, неожиданно терпит крушение. 48 пассажиров, оставшихся в живых, оказываются на пустынном острове посреди океана. Люди в панике.
Надежда быть найденными довольно призрачна. Поэтому остается только одно: собраться с силами и постараться выжить на острове, начиненном множеством опасностей…



Качество: BDRip 480p
Формат: MKV
Видео кодек: H.264
Аудио кодек: AC3
Видео: 720х400 (1.78:1), 23.976 fps ~1397 kbps avg, 0.203 bit/pixel
Аудио # 1: Rus 48 kHz, Dolby Digital 2.0 @ 320 kbps (Дубляж)
Аудио # 2: Rus 48 kHz, Dolby Digital 5.1 @ 448 kbps (LostFilm)
Аудио # 3: Rus 48 kHz, Dolby Digital 5.1 @ 448 kbps (Ю.Немахов)
Аудио # 4: Eng 48 kHz, Dolby Digital 5.1 @ 448 kbps
Субтитры: Russian, SRT (Полные), English, SRT (Полные)
General
Format : Matroska
File size : 1.23 GiB
Duration : 43mn 18s
Overall bit rate : 4 062 Kbps
Encoded date : UTC 2011-07-23 12:24:40
Writing application : mkvmerge v4.1.1 ('Bouncin' Back') сборка от Jul 3 2010 22:54:08
Writing library : libebml v1.0.0 + libmatroska v1.0.0
Video
ID : 1
Format : AVC
Format/Info : Advanced Video Codec
Format profile : High@L4.1
Format settings, CABAC : Yes
Format settings, ReFrames : 8 frames
Format settings, GOP : M=1, N=24
Codec ID : V_MPEG4/ISO/AVC
Duration : 43mn 18s
Bit rate : 2 400 Kbps
Width : 720 pixels
Height : 400 pixels
Display aspect ratio : 16:9
Frame rate : 23.976 fps
Color space : YUV
Chroma subsampling : 4:2:0
Bit depth : 8 bits
Scan type : Progressive
Bits/(Pixel*Frame) : 0.348
Stream size : 718 MiB (57%)
Writing library : x264 core 105 r1724+278 a6d5907
Encoding settings : cabac=1 / ref=8 / deblock=1:-1:-1 / analyse=0x3:0x133 / me=umh / subme=9 / psy=1 / fade_compensate=0.00 / psy_rd=0.60:0.00 / mixed_ref=0 / me_range=32 / chroma_me=1 / trellis=2 / 8x8dct=1 / cqm=0 / deadzone=21,11 / fast_pskip=0 / chroma_qp_offset=-2 / threads=3 / sliced_threads=0 / nr=0 / decimate=0 / interlaced=0 / constrained_intra=0 / fgo=0 / bframes=8 / b_pyramid=2 / b_adapt=2 / b_bias=0 / direct=3 / weightb=1 / open_gop=0 / weightp=2 / keyint=250 / keyint_min=23 / scenecut=40 / intra_refresh=0 / rc_lookahead=60 / rc=2pass / mbtree=0 / bitrate=2400 / ratetol=1.0 / qcomp=0.80 / qpmin=9 / qpmax=28 / qpstep=4 / cplxblur=20.0 / qblur=0.5 / vbv_maxrate=62500 / vbv_bufsize=50000 / ip_ratio=1.40 / pb_ratio=1.30 / aq=1:1.00 / nal_hrd=none
Language : English
Color primaries : BT.709-5, BT.1361, IEC 61966-2-4, SMPTE RP177
Transfer characteristics : BT.709-5, BT.1361
Matrix coefficients : BT.709-5, BT.1361, IEC 61966-2-4 709, SMPTE RP177
Audio #1
ID : 2
Format : AC-3
Format/Info : Audio Coding 3
Format profile : Dolby Digital
Mode extension : CM (complete main)
Muxing mode : Header stripping
Codec ID : A_AC3
Duration : 43mn 18s
Bit rate mode : Constant
Bit rate : 320 Kbps
Channel(s) : 2 channels
Channel positions : Front: L R
Sampling rate : 48.0 KHz
Bit depth : 16 bits
Compression mode : Lossy
Stream size : 99.1 MiB (8%)
Title : Дубляж
Language : Russian
Audio #2
ID : 3
Format : AC-3
Format/Info : Audio Coding 3
Mode extension : CM (complete main)
Muxing mode : Header stripping
Codec ID : A_AC3
Duration : 43mn 18s
Bit rate mode : Constant
Bit rate : 448 Kbps
Channel(s) : 6 channels
Channel positions : Front: L C R, Side: L R, LFE
Sampling rate : 48.0 KHz
Bit depth : 16 bits
Compression mode : Lossy
Stream size : 139 MiB (11%)
Title : LostFilm
Language : Russian
Audio #3
ID : 4
Format : AC-3
Format/Info : Audio Coding 3
Mode extension : CM (complete main)
Muxing mode : Header stripping
Codec ID : A_AC3
Duration : 43mn 18s
Bit rate mode : Constant
Bit rate : 448 Kbps
Channel(s) : 6 channels
Channel positions : Front: L C R, Side: L R, LFE
Sampling rate : 48.0 KHz
Bit depth : 16 bits
Compression mode : Lossy
Stream size : 139 MiB (11%)
Title : Ю.Немахов
Language : Russian
Audio #4
ID : 5
Format : AC-3
Format/Info : Audio Coding 3
Mode extension : CM (complete main)
Muxing mode : Header stripping
Codec ID : A_AC3
Duration : 43mn 18s
Bit rate mode : Constant
Bit rate : 448 Kbps
Channel(s) : 6 channels
Channel positions : Front: L C R, Side: L R, LFE
Sampling rate : 48.0 KHz
Bit depth : 16 bits
Compression mode : Lossy
Stream size : 139 MiB (11%)
Title : Original
Language : English
Text #1
ID : 6
Format : UTF-8
Codec ID : S_TEXT/UTF8
Codec ID/Info : UTF-8 Plain Text
Title : Полные
Language : Russian
Text #2
ID : 7
Format : UTF-8
Codec ID : S_TEXT/UTF8
Codec ID/Info : UTF-8 Plain Text
Title : Полные
Language : English
x264 [info]: frame I:28 Avg QP:11.98 size: 32537
x264 [info]: frame P:692 Avg QP:12.63 size: 7436
x264 [info]: frame B:1437 Avg QP:16.72 size: 6390
x264 [info]: consecutive B-frames: 12.8% 6.4% 2.0% 31.2% 12.4% 25.9% 4.9% 3.0% 0.8% 0.5%
x264 [info]: mb I I16..4: 57.7% 24.5% 17.7%
x264 [info]: mb P I16..4: 0.9% 5.6% 0.9% P16..4: 15.4% 7.3% 3.3% 0.0% 0.0% skip:66.6%
x264 [info]: mb B I16..4: 0.2% 1.8% 0.3% B16..8: 23.5% 7.7% 2.3% direct: 8.5% skip:55.8% L0:35.3% L1:39.9% BI:24.8%
x264 [info]: 8x8 transform intra:64.7% inter:57.1%
x264 [info]: direct mvs spatial:91.4% temporal:8.6%
x264 [info]: coded y,uvDC,uvAC intra: 76.3% 70.8% 55.6% inter: 21.7% 12.5% 3.7%
x264 [info]: i16 v,h,dc,p: 79% 3% 7% 11%
x264 [info]: i8 v,h,dc,ddl,ddr,vr,hd,vl,hu: 9% 10% 15% 9% 11% 10% 11% 11% 14%
x264 [info]: i4 v,h,dc,ddl,ddr,vr,hd,vl,hu: 10% 8% 10% 10% 13% 12% 11% 11% 13%
x264 [info]: i8c dc,h,v,p: 55% 18% 12% 15%
x264 [info]: Weighted P-Frames: Y:1.4%
x264 [info]: ref P L0: 63.0% 3.6% 15.9% 6.3% 4.3% 2.8% 1.9% 1.2% 0.8% 0.1%
x264 [info]: ref B L0: 81.8% 11.7% 3.0% 1.5% 0.9% 0.6% 0.3% 0.1%
x264 [info]: ref B L1: 95.3% 4.7%
x264 [info]: kb/s:1355.10
encoded 61846 frames, 4.29 fps, 1355.17 kb/s


Эпизод 01 - Повесть о двух городах /A Tale Of Two Cities
Эпизод 02 - Стеклянная балерина /The Glass Ballerina
Эпизод 03 - Дальнейшие указания / Further Instructions
Эпизод 04 - Каждый за себя /Every Man for Himself
Эпизод 05 - Цена жизни / The Cost of Living
Эпизод 06 - Я согласна / I DO
Эпизод 07 - Не в Портленде / Not in Portland
Эпизод 08 - Видения / Flashes Before Your Eyes
Эпизод 09 - Чужой среди чужих / Stranger in a Strange Land
Эпизод 10 - Триша Танака умерла / Tricia Tanaka Is Dead)
Эпизод 11 - Введите 77 / Enter 77
Эпизод 12 - Авиапочта / Par Avion
Эпизод 13 - Человек из Таллахасси / The Man from Tallahassee
Эпизод 14 - Голая правда / Expose
Эпизод 15 - Брошенные / Left Behind
Эпизод 16 - Одна из нас / One of Us
Эпизод 17 - Безвыходное положение / Catch-22
Эпизод 18 - Дата зачатия / D.O.C.
Эпизод 19 - Гауптвахта / The Brig
Эпизод 20 - Человек за ширмой / The Man Behind the Curtain
Эпизод 21 - Избранное / Greatest Hits
Эпизод 22 - В Зазеркалье. Часть 1 / Through the Looking Glass. Part 1
Эпизод 23 - В Зазеркалье. Часть 2 / Through the Looking Glass. Part 2

Сезон 4

Год выпуска: 2008
Страна: США
Жанр: фантастика, триллер, драма, приключения, детектив,
Продолжительность: ~ 00:43:00
Перевод: Профессиональный многоголосный, закадровый; Профессиональный полное дублирование
Русские субтитры: есть
Режиссёр: Джей Джей Абрамс / J.J. Abrams, Джек Бендер, Кевин Хукс, Майкл Зинберг, Грег Ятанес, Марита Грабяк, Стивен Уильямс, Род Холкомб, Такер Гейтс, Дэниель Атиас, Роберт Мендел
В ролях:
Эмили Де Равин, Хорхе Гарсиа, Джош Холлоуэй, Дэниэл Дае Ким, Юн-жин Ким, Эванджелин Лилли, Доминик Монахэн, Терри О`Куин, Нэвин Эндрюс, Мэттью Фокс, Харольд Периньо мл., Мэгги Грэйс, Майкл Эмерсон, Малкольм Дэвид Келли, Адеуэйл Акиннуйе-Агбайе, Йен Сомерхалдер, Генри Йен Кусик, Мишель Родригез, Мэдисон, Элизабет Митчел, Синтия Уэтрос и др.
Описание:
Авиалайнер совершал полет над Тихим океаном и рухнул на один из его островов. С этой минуты остаться в живых станет целью для 48 уцелевших пассажиров. В экстремальной ситуации человек открывается таким, каким его раньше никто не знал. Кажется, все оказываются в общей беде. Но кто-то паникует, а кто-то обнаруживает в себе качества лидера, чтобы повести оставшихся за собой. Идти вперед - значит выжить. Поддаться общему настроению, допустить сомнения в свою душу - означает погубить не только себя, но и всех остальных. Положение уцелевших усугубляет таинственный остров. Жертвы авиакатастрофы должны победить все опасности, которыми это местечко в Тихом океане пытается их погубить. Остров расставляет для спутников опасные ловушки, тот кто не может справиться - погибает.



Качество: BDRip 480p
Формат: MKV
Видео кодек: H.264
Аудио кодек: AC3
Видео: 720х400 (1.78:1), 23.976 fps ~1397 kbps avg, 0.203 bit/pixel
Аудио # 1: Rus 48 kHz, Dolby Digital 2.0 @ 192 kbps (Дубляж)
Аудио # 2: Rus 48 kHz, Dolby Digital 5.1 @ 448 kbps (LostFilm)
Аудио # 3: Eng 48 kHz, Dolby Digital 5.1 @ 448 kbps
Субтитры: Russian, SRT (Полные), English, SRT (Полные).
General
Format : Matroska
File size : 1.08 GiB
Duration : 43mn 8s
Overall bit rate : 3 586 Kbps
Encoded date : UTC 2011-07-27 08:14:06
Writing application : mkvmerge v4.1.1 ('Bouncin' Back') сборка от Jul 3 2010 22:54:08
Writing library : libebml v1.0.0 + libmatroska v1.0.0
Video
ID : 1
Format : AVC
Format/Info : Advanced Video Codec
Format profile : High@L4.1
Format settings, CABAC : Yes
Format settings, ReFrames : 9 frames
Format settings, GOP : M=1, N=48
Codec ID : V_MPEG4/ISO/AVC
Duration : 43mn 8s
Bit rate : 2 400 Kbps
Width : 720 pixels
Height : 400 pixels
Display aspect ratio : 16:9
Frame rate : 23.976 fps
Color space : YUV
Chroma subsampling : 4:2:0
Bit depth : 8 bits
Scan type : Progressive
Bits/(Pixel*Frame) : 0.348
Stream size : 749 MiB (68%)
Writing library : x264 core 114 r1924 08d04a4
Encoding settings : cabac=1 / ref=9 / deblock=1:-2:-2 / analyse=0x3:0x133 / me=umh / subme=10 / psy=1 / psy_rd=0.90:0.00 / mixed_ref=1 / me_range=24 / chroma_me=1 / trellis=2 / 8x8dct=1 / cqm=0 / deadzone=21,11 / fast_pskip=0 / chroma_qp_offset=-2 / threads=3 / sliced_threads=0 / nr=0 / decimate=0 / interlaced=0 / constrained_intra=0 / bframes=8 / b_pyramid=2 / b_adapt=2 / b_bias=0 / direct=3 / weightb=1 / open_gop=0 / weightp=2 / keyint=250 / keyint_min=23 / scenecut=40 / intra_refresh=0 / rc_lookahead=60 / rc=2pass / mbtree=1 / bitrate=2400 / ratetol=1.0 / qcomp=0.70 / qpmin=8 / qpmax=30 / qpstep=4 / cplxblur=20.0 / qblur=0.5 / vbv_maxrate=35000 / vbv_bufsize=70000 / nal_hrd=none / ip_ratio=1.40 / aq=1:1.00
Language : English
Color primaries : BT.709-5, BT.1361, IEC 61966-2-4, SMPTE RP177
Transfer characteristics : BT.709-5, BT.1361
Matrix coefficients : BT.709-5, BT.1361, IEC 61966-2-4 709, SMPTE RP177
Audio #1
ID : 2
Format : AC-3
Format/Info : Audio Coding 3
Mode extension : CM (complete main)
Muxing mode : Header stripping
Codec ID : A_AC3
Duration : 43mn 8s
Bit rate mode : Constant
Bit rate : 192 Kbps
Channel(s) : 2 channels
Channel positions : Front: L R
Sampling rate : 48.0 KHz
Bit depth : 16 bits
Compression mode : Lossy
Stream size : 59.2 MiB (5%)
Title : Дубляж
Language : Russian
Audio #2
ID : 3
Format : AC-3
Format/Info : Audio Coding 3
Mode extension : CM (complete main)
Muxing mode : Header stripping
Codec ID : A_AC3
Duration : 43mn 8s
Bit rate mode : Constant
Bit rate : 448 Kbps
Channel(s) : 6 channels
Channel positions : Front: L C R, Side: L R, LFE
Sampling rate : 48.0 KHz
Bit depth : 16 bits
Compression mode : Lossy
Stream size : 138 MiB (12%)
Title : LostFilm
Language : Russian
Audio #3
ID : 4
Format : AC-3
Format/Info : Audio Coding 3
Mode extension : CM (complete main)
Muxing mode : Header stripping
Codec ID : A_AC3
Duration : 43mn 8s
Bit rate mode : Constant
Bit rate : 448 Kbps
Channel(s) : 6 channels
Channel positions : Front: L C R, Side: L R, LFE
Sampling rate : 48.0 KHz
Bit depth : 16 bits
Compression mode : Lossy
Stream size : 138 MiB (12%)
Title : Original
Language : Russian
Text #1
ID : 5
Format : ASS
Codec ID : S_TEXT/ASS
Codec ID/Info : Advanced Sub Station Alpha
Compression mode : Lossless
Title : Форсированные
Language : Russian
Text #2
ID : 6
Format : ASS
Codec ID : S_TEXT/ASS
Codec ID/Info : Advanced Sub Station Alpha
Compression mode : Lossless
Title : Полные
Language : Russian
Text #3
ID : 7
Format : ASS
Codec ID : S_TEXT/ASS
Codec ID/Info : Advanced Sub Station Alpha
Compression mode : Lossless
Title : Полные
Language : English
Menu
00:00:00.000 : en:Chapter 1
00:03:43.932 : en:Chapter 2
00:12:20.489 : en:Chapter 3
00:19:40.971 : en:Chapter 4
00:25:03.418 : en:Chapter 5
00:32:30.782 : en:Chapter 6
00:42:31.840 : en:Chapter 7
x264 [info]: frame I:28 Avg QP:11.98 size: 32537
x264 [info]: frame P:692 Avg QP:12.63 size: 7436
x264 [info]: frame B:1437 Avg QP:16.72 size: 6390
x264 [info]: consecutive B-frames: 12.8% 6.4% 2.0% 31.2% 12.4% 25.9% 4.9% 3.0% 0.8% 0.5%
x264 [info]: mb I I16..4: 57.7% 24.5% 17.7%
x264 [info]: mb P I16..4: 0.9% 5.6% 0.9% P16..4: 15.4% 7.3% 3.3% 0.0% 0.0% skip:66.6%
x264 [info]: mb B I16..4: 0.2% 1.8% 0.3% B16..8: 23.5% 7.7% 2.3% direct: 8.5% skip:55.8% L0:35.3% L1:39.9% BI:24.8%
x264 [info]: 8x8 transform intra:64.7% inter:57.1%
x264 [info]: direct mvs spatial:91.4% temporal:8.6%
x264 [info]: coded y,uvDC,uvAC intra: 76.3% 70.8% 55.6% inter: 21.7% 12.5% 3.7%
x264 [info]: i16 v,h,dc,p: 79% 3% 7% 11%
x264 [info]: i8 v,h,dc,ddl,ddr,vr,hd,vl,hu: 9% 10% 15% 9% 11% 10% 11% 11% 14%
x264 [info]: i4 v,h,dc,ddl,ddr,vr,hd,vl,hu: 10% 8% 10% 10% 13% 12% 11% 11% 13%
x264 [info]: i8c dc,h,v,p: 55% 18% 12% 15%
x264 [info]: Weighted P-Frames: Y:1.4%
x264 [info]: ref P L0: 63.0% 3.6% 15.9% 6.3% 4.3% 2.8% 1.9% 1.2% 0.8% 0.1%
x264 [info]: ref B L0: 81.8% 11.7% 3.0% 1.5% 0.9% 0.6% 0.3% 0.1%
x264 [info]: ref B L1: 95.3% 4.7%
x264 [info]: kb/s:1355.10
encoded 61846 frames, 4.29 fps, 1355.17 kb/s


Серия 1: The Beginning of the End / Начало конца [Хёрли]
Серия 2: Confirmed Dead / Объявлены погибшими [Дэн, Майлз, Шарлотта, Фрэнк]
Серия 3: The Economist / Экономист [Саид]
Серия 4: Eggtown / Яичный город [Кейт]
Серия 5: The Constant / Постоянная величина [Десмонд]
Серия 6: The Other Woman / Соперница [Джульет]
Серия 7: Ji Yeon / Джи Ён [Чжин, Сун]
Серия 8: Meet Kevin Johnson / Знакомьтесь, Кевин Джонсон [Майкл]
Серия 9: The Shape of Things to Come / Облик грядущего [Бен]
Серия 10: Something Nice Back Home / Всё хорошее, что ждёт нас дома [Джек]
Серия 11: Cabin Fever / Лихорадка в хижине [Локк]
Серия 12: There's No Place Like Home. Part 1 / Нет места лучше дома (часть 1) [Oceanic Six]
Серия 13: There's No Place Like Home. Part 2 / Нет места лучше дома (часть 2) [Oceanic Six]
Серия 14: There's No Place Like Home. Part 3 / Нет места лучше дома (часть 3) [Oceanic Six]

Сезон 5

Год выпуска: 2009
Страна: США
Жанр: фантастика, триллер, драма, приключения, детектив,
Продолжительность: ~ 00:43:00
Перевод: Профессиональный многоголосный, закадровый; Профессиональный полное дублирование
Русские субтитры: есть
Режиссёр: Джей Джей Абрамс / J.J. Abrams, Джек Бендер, Кевин Хукс, Майкл Зинберг, Грег Ятанес, Марита Грабяк, Стивен Уильямс, Род Холкомб, Такер Гейтс, Дэниель Атиас, Роберт Мендел
В ролях:
Майкл Эмерсон, Джош Холлоуэй, Меттью Фокс, Еванджелина Лилли, Teрри O'Куинн, Генри Иен Кьюсик, Невин Эндрюс, Эмили Де Рейвин, Элизабет Митчел, Хорхе Гарсия, Дениель Дей Ким, Юнджин Ким и др.
Описание:
Авиалайнер совершал полет над Тихим океаном и рухнул на один из его островов. С этой минуты остаться в живых станет целью для 48 уцелевших пассажиров. В экстремальной ситуации человек открывается таким, каким его раньше никто не знал. Кажется, все оказываются в общей беде. Но кто-то паникует, а кто-то обнаруживает в себе качества лидера, чтобы повести оставшихся за собой. Идти вперед - значит выжить. Поддаться общему настроению, допустить сомнения в свою душу - означает погубить не только себя, но и всех остальных. Положение уцелевших усугубляет таинственный остров. Жертвы авиакатастрофы должны победить все опасности, которыми это местечко в Тихом океане пытается их погубить. Остров расставляет для спутников опасные ловушки, тот кто не может справиться - погибает.



Качество: BDRip 480p
Формат: MKV
Видео кодек: H.264
Аудио кодек: AC3
Видео: 720х400 (1.78:1), 23.976 fps ~1397 kbps avg, 0.203 bit/pixel
Аудио # 1: Rus 48 kHz, Dolby Digital 2.0 @ 192 kbps (Дубляж)
Аудио # 2: Rus 48 kHz, Dolby Digital 5.1 @ 448 kbps (LostFilm)
Аудио # 3: Eng 48 kHz, Dolby Digital 5.1 @ 448 kbps
Субтитры: Russian, SRT (Полные), English, SRT (Полные).
General
Format : Matroska
Format version : Version 2
File size : 829 MiB
Duration : 43mn 4s
Overall bit rate : 2 692 Kbps
Encoded date : UTC 2011-08-12 14:23:44
Writing application : mkvmerge v4.1.1 ('Bouncin' Back') сборка от Jul 3 2010 22:54:08
Writing library : libebml v1.0.0 + libmatroska v1.0.0
Attachment : Yes / Yes / Yes / Yes
Video
ID : 1
Format : AVC
Format/Info : Advanced Video Codec
Format profile : High@L4.1
Format settings, CABAC : Yes
Format settings, ReFrames : 11 frames
Format settings, GOP : M=1, N=48
Codec ID : V_MPEG4/ISO/AVC
Duration : 43mn 4s
Bit rate : 1 600 Kbps
Width : 720 pixels
Height : 400 pixels
Display aspect ratio : 16:9
Frame rate : 23.976 fps
Color space : YUV
Chroma subsampling : 4:2:0
Bit depth : 8 bits
Scan type : Progressive
Bits/(Pixel*Frame) : 0.232
Stream size : 478 MiB (58%)
Writing library : x264 core 115 r2008 4c552d8
Encoding settings : cabac=1 / ref=11 / deblock=1:-2:-2 / analyse=0x3:0x133 / me=umh / subme=10 / psy=1 / psy_rd=0.90:0.00 / mixed_ref=1 / me_range=32 / chroma_me=1 / trellis=2 / 8x8dct=1 / cqm=0 / deadzone=21,11 / fast_pskip=0 / chroma_qp_offset=-2 / threads=3 / sliced_threads=0 / nr=0 / decimate=0 / interlaced=0 / bluray_compat=0 / constrained_intra=0 / bframes=8 / b_pyramid=2 / b_adapt=2 / b_bias=0 / direct=3 / weightb=1 / open_gop=0 / weightp=2 / keyint=250 / keyint_min=23 / scenecut=40 / intra_refresh=0 / rc_lookahead=60 / rc=2pass / mbtree=1 / bitrate=1600 / ratetol=1.0 / qcomp=0.70 / qpmin=8 / qpmax=30 / qpstep=4 / cplxblur=20.0 / qblur=0.5 / vbv_maxrate=50000 / vbv_bufsize=62500 / nal_hrd=none / ip_ratio=1.40 / aq=1:1.00
Language : English
Color primaries : BT.709-5, BT.1361, IEC 61966-2-4, SMPTE RP177
Transfer characteristics : BT.709-5, BT.1361
Matrix coefficients : BT.709-5, BT.1361, IEC 61966-2-4 709, SMPTE RP177
Audio #1
ID : 2
Format : AC-3
Format/Info : Audio Coding 3
Mode extension : CM (complete main)
Muxing mode : Header stripping
Codec ID : A_AC3
Duration : 43mn 4s
Bit rate mode : Constant
Bit rate : 192 Kbps
Channel(s) : 2 channels
Channel positions : Front: L R
Sampling rate : 48.0 KHz
Bit depth : 16 bits
Compression mode : Lossy
Stream size : 59.2 MiB (7%)
Title : Дубляж
Language : Russian
Audio #2
ID : 3
Format : AC-3
Format/Info : Audio Coding 3
Mode extension : CM (complete main)
Muxing mode : Header stripping
Codec ID : A_AC3
Duration : 43mn 4s
Bit rate mode : Constant
Bit rate : 448 Kbps
Channel(s) : 6 channels
Channel positions : Front: L C R, Side: L R, LFE
Sampling rate : 48.0 KHz
Bit depth : 16 bits
Compression mode : Lossy
Stream size : 138 MiB (17%)
Title : LostFilm
Language : Russian
Audio #3
ID : 4
Format : AC-3
Format/Info : Audio Coding 3
Mode extension : CM (complete main)
Muxing mode : Header stripping
Codec ID : A_AC3
Duration : 43mn 4s
Bit rate mode : Constant
Bit rate : 448 Kbps
Channel(s) : 6 channels
Channel positions : Front: L C R, Side: L R, LFE
Sampling rate : 48.0 KHz
Bit depth : 16 bits
Compression mode : Lossy
Stream size : 138 MiB (17%)
Title : Original
Language : English
Text #1
ID : 5
Format : ASS
Codec ID : S_TEXT/ASS
Codec ID/Info : Advanced Sub Station Alpha
Compression mode : Lossless
Title : Форсированные
Language : Russian
Text #2
ID : 6
Format : ASS
Codec ID : S_TEXT/ASS
Codec ID/Info : Advanced Sub Station Alpha
Compression mode : Lossless
Title : Полные
Language : Russian
Text #3
ID : 7
Format : ASS
Codec ID : S_TEXT/ASS
Codec ID/Info : Advanced Sub Station Alpha
Compression mode : Lossless
Title : Полные
Language : English
Menu
00:00:00.000 : en:Chapter 1
00:05:33.916 : en:Chapter 2
00:12:14.608 : en:Chapter 3
00:19:38.802 : en:Chapter 4
00:27:01.036 : en:Chapter 5
00:34:47.210 : en:Chapter 6
00:42:26.710 : en:Chapter 7
x264 [info]: frame I:28 Avg QP:11.98 size: 32537
x264 [info]: frame P:692 Avg QP:12.63 size: 7436
x264 [info]: frame B:1437 Avg QP:16.72 size: 6390
x264 [info]: consecutive B-frames: 12.8% 6.4% 2.0% 31.2% 12.4% 25.9% 4.9% 3.0% 0.8% 0.5%
x264 [info]: mb I I16..4: 57.7% 24.5% 17.7%
x264 [info]: mb P I16..4: 0.9% 5.6% 0.9% P16..4: 15.4% 7.3% 3.3% 0.0% 0.0% skip:66.6%
x264 [info]: mb B I16..4: 0.2% 1.8% 0.3% B16..8: 23.5% 7.7% 2.3% direct: 8.5% skip:55.8% L0:35.3% L1:39.9% BI:24.8%
x264 [info]: 8x8 transform intra:64.7% inter:57.1%
x264 [info]: direct mvs spatial:91.4% temporal:8.6%
x264 [info]: coded y,uvDC,uvAC intra: 76.3% 70.8% 55.6% inter: 21.7% 12.5% 3.7%
x264 [info]: i16 v,h,dc,p: 79% 3% 7% 11%
x264 [info]: i8 v,h,dc,ddl,ddr,vr,hd,vl,hu: 9% 10% 15% 9% 11% 10% 11% 11% 14%
x264 [info]: i4 v,h,dc,ddl,ddr,vr,hd,vl,hu: 10% 8% 10% 10% 13% 12% 11% 11% 13%
x264 [info]: i8c dc,h,v,p: 55% 18% 12% 15%
x264 [info]: Weighted P-Frames: Y:1.4%
x264 [info]: ref P L0: 63.0% 3.6% 15.9% 6.3% 4.3% 2.8% 1.9% 1.2% 0.8% 0.1%
x264 [info]: ref B L0: 81.8% 11.7% 3.0% 1.5% 0.9% 0.6% 0.3% 0.1%
x264 [info]: ref B L1: 95.3% 4.7%
x264 [info]: kb/s:1355.10
encoded 61846 frames, 4.29 fps, 1355.17 kb/s


Эпизод 01: Потому Что Вы Улетели
Джек и Бен пытаются собрать Шестёрку Ошеаник, чтобы вернуться на остров, а оставшиеся там начинают осознавать последствия "перемещения".
Что же будет дальше...
Режиссер: Стивен Уильямс
Эпизод 02: Ложь
Пока Хёрли переоценивает принятые решения, оставшиеся на острове сталкиваются с новыми угрозами.
Что же будет дальше....
Режиссер: Джек Бендер
Эпизод 03: Бомба
Десмонд отправляется в Оксфорд, где его ждёт множество удивительных открытий. А Фарадей на острове пытается обезвредить бомбу.
Что же будет дальше....
Режиссер: Род Холкомб
Эпизод 04: Маленький Принц
Кейт обнаруживает, что кто-то знает тайну истинного происхождения Аарона. Тем временем, драматические изменения во времени подвергают жизни оставшихся выживших на острова крайней опасности...
Что же будет дальше ... ?
Режиссер: Стивен Уильямс
Эпизод 05: Здесь Все Умрут
Лок берёт на себя бремя остановить всё более частые перемещения острова во времени. Бен в это время сталкивается с препятствием в попытке воссоединить Шестёрку Ошеаник и вернуть их всех на остров.
Что же будет дальше ... ?
Режиссер: Пол Эдвардс
Эпизод 06: 316
Шестёрка Ошеаник узнала способ вернуться на остров, но проблемы неизбежны, если вернуться пожелают не все.
Что же будет дальше ... ?
Режиссер: Стивен Уильямс
Эпизод 07: Жизнь И Смерть Джереми Бентама
Роковая миссия Лока с момента, как он покинул остров, до Джереми Бентама раскрыта.
Что же будет дальше ... ?
Режиссер: Джек Бендер
Эпизод 08: ЛаФлёр
Чтобы спасти своих спутников, Сойер выдумывает правдоподобную историю о том, как они все попали на остров.
Что же будет дальше ... ?
Режиссер: Марк Голдман
Эпизод 09: Намастэ!
Встретив старых знакомых, Сойер вынужден продолжать лгать, чтобы защитить их.
Что же будет дальше ... ?
Режиссер: Джек Бендер
Эпизод 10: Он - Наш Ты
Всем обитателям острова грозит опасность, когда один из спасшихся решает пойти против своих и взять всё в свои руки.
Что же будет дальше ... ?
Режиссер: Грег Ятанес
Эпизод 11: Обратной Дороги Нет
Джулиет не может вылечить раненого Бена, и Джек отказывается помогать. Однако Кейт относит Бена Другим, чтобы они его исцелили. Ричард объясняет, что это изменит мальчика навсегда. Во флешбэках, Кейт решает вернуться на остров и оставляет Аарона его бабушке.
Что же будет дальше ... ?
Режиссер: Бобби Рот
Эпизод 12: Мертвый - Значит Мертвый
Чтобы искупить прошлые грехи, Бен должен призвать дымового монстра и предстать перед судом.
Что же будет дальше ... ?
Режиссер: Стивен Уильямс
Эпизод 13: Некоторые Любят Планету Хот Горячее
Роджер, отец Бена, начинает подозревать Кейт в причастности к его исчезновению. Тем временем Майлз выполняет важное поручение в обществе напросившегося с ним Хёрли.
Что же будет дальше ... ?
Режиссер: Джек Бендер
Эпизод 14: Переменная
Фарадей возвращается на остров и говорит Джеку, что его мать, Элоиза Хоукинг, солгала им о возвращении на остров. У Джека рождается опасный план возвращения домой.
Что же будет дальше ... ?
Режиссер: Пол Эдвардс
Эпизод 15: Следуй За Лидером
Джек пытается следовать плану Фарадея - взорвать водородную бомбу. Локк убеждает Алперта отвести всех к Джейкобу, а Сойера допрашивают по поводу инкриминирующего видео камер наблюдения.
Что же будет дальше ... ?
Режиссер: Стивен Уильямс
Эпизод 16: Инцидент, Часть 1
Решение Джека привести свой план в действие встречает сильное сопротивление близких ему людей. Локк ставит перед Беном трудную задачу.
Что же будет дальше ... ?
Режиссер: Джек Бендер
Эпизод 17: Инцидент, Часть 2
То, к чему вела судьба гланых героев - свершилось. Финал близок.
Режиссер: Джек Бендер

Сезон 6

Год выпуска: 2010
Страна: США
Жанр: фантастика, триллер, драма, приключения, детектив,
Продолжительность: ~ 00:43:00
Перевод: Профессиональный многоголосный, закадровый; Профессиональный полное дублирование
Русские субтитры: есть
Режиссёр: Джей Джей Абрамс / J.J. Abrams, Джек Бендер, Кевин Хукс, Майкл Зинберг, Грег Ятанес, Марита Грабяк, Стивен Уильямс, Род Холкомб, Такер Гейтс, Дэниель Атиас, Роберт Мендел
В ролях:
Эмили Де Равин, Хорхе Гарсиа, Джош Холлоуэй, Дэниэл Дае Ким, Юн-жин Ким, Эванджелин Лилли, Доминик Монахэн, Терри О`Куин, Нэвин Эндрюс, Мэттью Фокс, Харольд Периньо мл., Мэгги Грэйс, Майкл Эмерсон, Малкольм Дэвид Келли, Адеуэйл Акиннуйе-Агбайе, Йен Сомерхалдер, Генри Йен Кусик, Мишель Родригез, Мэдисон, Элизабет Митчел, Синтия Уэтрос и др.
Описание:
Авиалайнер совершал полет над Тихим океаном и рухнул на один из его островов. С этой минуты остаться в живых станет целью для 48 уцелевших пассажиров. В экстремальной ситуации человек открывается таким, каким его раньше никто не знал. Кажется, все оказываются в общей беде. Но кто-то паникует, а кто-то обнаруживает в себе качества лидера, чтобы повести оставшихся за собой. Идти вперед - значит выжить. Поддаться общему настроению, допустить сомнения в свою душу - означает погубить не только себя, но и всех остальных. Положение уцелевших усугубляет таинственный остров. Жертвы авиакатастрофы должны победить все опасности, которыми это местечко в Тихом океане пытается их погубить. Остров расставляет для спутников опасные ловушки, тот кто не может справиться - погибает.



Качество: BDRip 480p
Формат: MKV
Видео кодек: H.264
Аудио кодек: AC3
Видео: 720х400 (1.78:1), 23.976 fps ~1397 kbps avg, 0.203 bit/pixel
Аудио # 1: Rus 48 kHz, Dolby Digital 2.0 @ 192 kbps (Дубляж)
Аудио # 2: Rus 48 kHz, Dolby Digital 5.1 @ 448 kbps (LostFilm)
Аудио # 3: Rus 48 kHz, Dolby Digital 5.1 @ 448 kbps (Первый канал)
Аудио # 4: Eng 48 kHz, Dolby Digital 5.1 @ 448 kbps
Субтитры: Russian, SRT (Полные), English, SRT (Полные).
General
Format : Matroska
Format version : Version 2
File size : 1.84 GiB
Duration : 1h 24mn
Overall bit rate : 3 137 Kbps
Encoded date : UTC 2011-08-27 09:43:50
Writing application : mkvmerge v4.1.1 ('Bouncin' Back') сборка от Jul 3 2010 22:54:08
Writing library : libebml v1.0.0 + libmatroska v1.0.0
Video
ID : 1
Format : AVC
Format/Info : Advanced Video Codec
Format profile : High@L4.1
Format settings, CABAC : Yes
Format settings, ReFrames : 11 frames
Codec ID : V_MPEG4/ISO/AVC
Duration : 1h 24mn
Bit rate : 1 600 Kbps
Width : 720 pixels
Height : 400 pixels
Display aspect ratio : 16:9
Frame rate : 23.976 fps
Color space : YUV
Chroma subsampling : 4:2:0
Bit depth : 8 bits
Scan type : Progressive
Bits/(Pixel*Frame) : 0.232
Stream size : 925 MiB (49%)
Writing library : x264 core 115 r2008 4c552d8
Encoding settings : cabac=1 / ref=11 / deblock=1:-2:-2 / analyse=0x3:0x133 / me=umh / subme=10 / psy=1 / psy_rd=0.90:0.00 / mixed_ref=1 / me_range=32 / chroma_me=1 / trellis=2 / 8x8dct=1 / cqm=0 / deadzone=21,11 / fast_pskip=0 / chroma_qp_offset=-2 / threads=3 / sliced_threads=0 / nr=0 / decimate=0 / interlaced=0 / bluray_compat=0 / constrained_intra=0 / bframes=8 / b_pyramid=2 / b_adapt=2 / b_bias=0 / direct=3 / weightb=1 / open_gop=0 / weightp=2 / keyint=250 / keyint_min=23 / scenecut=40 / intra_refresh=0 / rc_lookahead=60 / rc=2pass / mbtree=1 / bitrate=1600 / ratetol=1.0 / qcomp=0.70 / qpmin=8 / qpmax=30 / qpstep=4 / cplxblur=20.0 / qblur=0.5 / vbv_maxrate=50000 / vbv_bufsize=62500 / nal_hrd=none / ip_ratio=1.40 / aq=1:1.00
Language : English
Color primaries : BT.709-5, BT.1361, IEC 61966-2-4, SMPTE RP177
Transfer characteristics : BT.709-5, BT.1361
Matrix coefficients : BT.709-5, BT.1361, IEC 61966-2-4 709, SMPTE RP177
Audio #1
ID : 2
Format : AC-3
Format/Info : Audio Coding 3
Mode extension : CM (complete main)
Muxing mode : Header stripping
Codec ID : A_AC3
Duration : 1h 24mn
Bit rate mode : Constant
Bit rate : 192 Kbps
Channel(s) : 2 channels
Channel positions : Front: L R
Sampling rate : 48.0 KHz
Bit depth : 16 bits
Compression mode : Lossy
Stream size : 116 MiB (6%)
Title : Дубляж
Language : Russian
Audio #2
ID : 3
Format : AC-3
Format/Info : Audio Coding 3
Mode extension : CM (complete main)
Muxing mode : Header stripping
Codec ID : A_AC3
Duration : 1h 24mn
Bit rate mode : Constant
Bit rate : 448 Kbps
Channel(s) : 6 channels
Channel positions : Front: L C R, Side: L R, LFE
Sampling rate : 48.0 KHz
Bit depth : 16 bits
Compression mode : Lossy
Stream size : 270 MiB (14%)
Title : LostFilm
Language : Russian
Audio #3
ID : 4
Format : AC-3
Format/Info : Audio Coding 3
Mode extension : CM (complete main)
Muxing mode : Header stripping
Codec ID : A_AC3
Duration : 1h 24mn
Bit rate mode : Constant
Bit rate : 448 Kbps
Channel(s) : 6 channels
Channel positions : Front: L C R, Side: L R, LFE
Sampling rate : 48.0 KHz
Bit depth : 16 bits
Compression mode : Lossy
Stream size : 270 MiB (14%)
Title : Первый Канал
Language : Russian
Audio #4
ID : 5
Format : AC-3
Format/Info : Audio Coding 3
Mode extension : CM (complete main)
Muxing mode : Header stripping
Codec ID : A_AC3
Duration : 1h 24mn
Bit rate mode : Constant
Bit rate : 448 Kbps
Channel(s) : 6 channels
Channel positions : Front: L C R, Side: L R, LFE
Sampling rate : 48.0 KHz
Bit depth : 16 bits
Compression mode : Lossy
Stream size : 270 MiB (14%)
Title : Original
Language : English
Text #1
ID : 6
Format : UTF-8
Codec ID : S_TEXT/UTF8
Codec ID/Info : UTF-8 Plain Text
Title : Полные
Language : Russian
Text #2
ID : 7
Format : UTF-8
Codec ID : S_TEXT/UTF8
Codec ID/Info : UTF-8 Plain Text
Title : Полные
Language : English
x264 [info]: frame I:28 Avg QP:11.98 size: 32537
x264 [info]: frame P:692 Avg QP:12.63 size: 7436
x264 [info]: frame B:1437 Avg QP:16.72 size: 6390
x264 [info]: consecutive B-frames: 12.8% 6.4% 2.0% 31.2% 12.4% 25.9% 4.9% 3.0% 0.8% 0.5%
x264 [info]: mb I I16..4: 57.7% 24.5% 17.7%
x264 [info]: mb P I16..4: 0.9% 5.6% 0.9% P16..4: 15.4% 7.3% 3.3% 0.0% 0.0% skip:66.6%
x264 [info]: mb B I16..4: 0.2% 1.8% 0.3% B16..8: 23.5% 7.7% 2.3% direct: 8.5% skip:55.8% L0:35.3% L1:39.9% BI:24.8%
x264 [info]: 8x8 transform intra:64.7% inter:57.1%
x264 [info]: direct mvs spatial:91.4% temporal:8.6%
x264 [info]: coded y,uvDC,uvAC intra: 76.3% 70.8% 55.6% inter: 21.7% 12.5% 3.7%
x264 [info]: i16 v,h,dc,p: 79% 3% 7% 11%
x264 [info]: i8 v,h,dc,ddl,ddr,vr,hd,vl,hu: 9% 10% 15% 9% 11% 10% 11% 11% 14%
x264 [info]: i4 v,h,dc,ddl,ddr,vr,hd,vl,hu: 10% 8% 10% 10% 13% 12% 11% 11% 13%
x264 [info]: i8c dc,h,v,p: 55% 18% 12% 15%
x264 [info]: Weighted P-Frames: Y:1.4%
x264 [info]: ref P L0: 63.0% 3.6% 15.9% 6.3% 4.3% 2.8% 1.9% 1.2% 0.8% 0.1%
x264 [info]: ref B L0: 81.8% 11.7% 3.0% 1.5% 0.9% 0.6% 0.3% 0.1%
x264 [info]: ref B L1: 95.3% 4.7%
x264 [info]: kb/s:1355.10
encoded 61846 frames, 4.29 fps, 1355.17 kb/s


6.01-02 / LA X, Part 1 and 2/ Аэропорт ЛА, Часть 1&2
Сценарий: Carlton Cuse & Damon Lindelof / Режиссер: Jack Bender / Дата эфира: 02 февраля 2010
История продолжает развиваться даже после взрыва водородной бомбы.
6.03 / What Kate Does / Что Делает Кейт
Сценарий: Edward Kitsis / Режиссер: Paul A. Edwards / Дата эфира: 09 февраля 2010
В серии рассказано о том, чтобы сделала Кейт, если бы самолет приземлился в аэропорту Лос-Анджелеса.
6.04 / The Substitute / Замена
Сценарий: Elisabeth Sarnoff / Режиссер: Tucker Gates / Дата эфира: 16 февраля 2010
Джон Локк, вернее нечто, сидящее в его теле, вербует людей в свою команду. Первый кандидат в его отряд - Сойер, которому больше нечего терять.
6.05 / Lighthous / Маяк
Сценарий: Carlton Cuse & Damon Lindelof / Режиссер: Jack Bender / Дата эфира: 23 февраля 2010
Хёрли пытается убедить Джека отправиться с ним на секретное задание. Джин встречает старого знакомого.
6.06 / Sundown / Закат
Сценарий: Graham Roland / Режиссер: Bobby Roth / Дата эфира: 02 марта 2010
После привлечения Саида на свою сторону Человек в чёрном выдвигает ультиматум Другим: либо они присоединятся к нему, либо погибнут. Тем временем, Кейт встречается с Клер. В альтернативной реальности Саид помогает своему брату, попавшему в долговую яму.
6.07 / Dr.Linus / Доктор Лайнус
Сценарий: Adam Horowitz / Режиссер: Mario Van Peebles / Дата эфира: 09 марта 2010
Бенджамин находит Илану и остальных, присоединяясь к ним. Но благодаря Майлзу они узнают, что Бен убил Джейкоба. Илана заставляет Бена копать самому себе могилу.
6.08 / Recon / Повторная Афера
Сценарий: Элизабет Сарнофф / Режиссер: Джек Бендер / Дата эфира: 16 марта 2010
Человек в чёрном посылает Сойера с заданием на второй остров, где тот обнаруживает вернувшегося на остров Чарльза Уидмора. В альтернативной реальности Сойер продолжает поиски убийцы своих родителей, но уже в другом качестве.
6.09 / Ab Aeterno / Давным-Давно
Сценарий: Melinda Hsu / Режиссер: Tucker Gates / Дата эфира: 23 марта 2010
Серия раскрывает тайну попадания Ричарда на Остров: в 1867 году он прибывает на корабле «Чёрная скала», будучи рабом. Он становится представителем Джейкоба в обмен на бессмертие. В наши дни, его убеждают помочь кандидатам на место Джейкоба.
6.10 / The Package / Посылка
Сценарий: Graham Roland / Режиссер: Paul A. Edwards / Дата эфира: 30 марта 2010
Сун и Джин отчаянно продолжают искать друг друга. Тем временем, ЛжеЛокк встречается со своим врагом.
6.11 / Happily Ever After / Долго И Счастливо
Сценарий: Дэймон Линделоф и Карлтон Кьюз / Режиссер: Джек Бендер / Дата эфира: 07 апреля 2010
Десмонд приходит в чувство и осознает, что Чарльз Уидмор привез его на остров ради экспериментов над ним.
6.12 / Everybody Loves Hugo / Все Любят Хьюго
Сценарий: Эдвард Китсис / Режиссер: Дэниэл Аттиас / Дата эфира: 07 апреля 2010
Илана решается принести динамит для подрыва самолёта, но погибает при случайных обстоятельствах. Раскрывается тайна "шепчущих голосов" на Острове. Дезмонд встречается с Локком, который отводит его к колодцу и после недолгого разговора сбрасывает вниз.
6.13 / The Last Recruit / Последний Новобранец
Сценарий: Грэхэм Роланд / Режиссер: Стивен Семел / Дата эфира: 20 апреля 2010
Люди Уидмора требуют вернуть Десмонда. Человек в Чёрном сворачивает лагерь и вместе со своими сторонниками направляется на остров Гидры. Однако, у Сойера есть свой план. В альтернативной реальности показаны все основные персонажи, которые вновь пересекаются друг с другом.
6.14 / The Candidate / Кандидат
Сценарий: Элизабет Сарнофф / Режиссер: Джек Бендер / Дата эфира: 04 мая 2010
Человек в Чёрном продолжает следовать своему плану — собрать всех Кандидатов вместе, но Джек по прежнему хочет остаться на Острове. Локк пытается уничтожить всех кандидатов, ведь только так он сможет уйти с острова. В альтернативной реальности Джек пытается выяснить, почему Локк не хочет делать операцию.
6.15 / Across The Sea / Из-за Моря
Сценарий: Дэймон Линделоф и Карлтон Кьюз / Режиссер: Такер Гейтс / Дата эфира: 11 мая 2010
Человек в чёрном и Джейкоб оказываются братьями, которые родились на острове. Их мать — женщина с корабля, потерпевшего кораблекрушение. Другая женщина, живущая на острове и спасшая их беременную мать, после родов убивает её, после чего воспитывает братьев, как своих сыновей.
6.16 / What They Died For / Ради Чего Они Погибли
Сценарий: Элизабет Сарнофф / Режиссер: Пол Эдвардс / Дата эфира: 18 мая 2010
В то время как Человек в чёрном разрабатывает новую стратегию, группа Джека ищет Десмонда. Херли встречает на своем пути Джейкоба и тот просит привести его друзей к нему пока не погаснет костер. Джейкоб рассказывает кандидатам всю правду.
6.17-18 / The End / Конец
Сценарий: Карлтон Кьюз & Деймон Линделоф/ Режиссер: Джек Бендер / Дата эфира: 23 мая 2010
Двухчасовая заключительная серия, последняя в шестом сезоне и во всём сериале. На Острове Деcмонд спускается в пещеру со Светом и "выключает" его. Как следствие, Человек в Чёрном становится смертным и перед тем, как Кейт его убивает он смертельно ранит Джека.




Скачать Остаться.в.живых.(Потерянные).LOST.(сезоны.1-6.серии.1-122.из.122).(Джей.Джей.Абрамс).[2004-2010.г.приключения.драма.триллер.480p.BDRip-AVC].Dub.(Первый.канал)+.MVO.(Tycoon).+.MVO.(LostFilm).+.AVO.(Ю.Немахов).+.Original.+.Subs.torrent без регистрации
Золото ЗОЛОТАЯ РАЗДАЧА! СКАЧАННОЕ НЕ ЗАСЧИТЫВАЕТСЯ! Золото
Дата: Зарегистрирован   [ Тип: внутренний ] Как тут cкачать?
MAGNET ссылка
MAGNET ссылка


Скачать .torrent

300 KB

Статус: проверено DHT
Скачан: торрент - 590 раз, раздача полностью - 67 раз
Размер: 111,67 GB
Оценка:  5 (Голосов: 5)
Поблагодарили: 10
Поделиться ссылкой на эту раздачу с друзьями:
В контактеFacebookОдноклассникиTwitterLivejournalМой МирLiveinternet
 

 

Ximed

[] 

Плиз, дайте скачать ak az
 

МихаНЕзатор

[] 

Качайте здесь http://goldenshara.com/viewtopic.php?p=192262#192262
 

МихаНЕзатор

[] 

Раздача заменена
 
Показать сообщения:    


Вы не можете начинать темы
Вы не можете отвечать на сообщения
Вы не можете редактировать свои сообщения
Вы не можете удалять свои сообщения
Вы не можете голосовать в опросах
Вы не можете прикреплять файлы к сообщениям
Вы можете скачивать файлы