Loading...
Error

Скачать Деньги, деньги, еще деньги / Mo' Money (Питер МакДоналд / Peter MacDonald) [1992 г., комедия, мелодрама, криминал, WEB-DLRip] [AVO] (Михалев) торрент без регистрации

 
Статистика раздачи
Размер:  1,46 GB   |    Скачан:  148 раз
Сидов:  1  [  0 KB/s  ]  
 
Автор Сообщение

leon030982

[] 

Деньги, деньги, еще деньги / Mo' Money


Год выпуска: 1992
Страна: США
Жанр: комедия, мелодрама, криминал
Продолжительность: 01:29:41
Перевод: Авторский (одноголосый) [Алексей Михалев]

Режиссер: Питер МакДоналд /Peter MacDonald

В ролях: Дэймон Уэйнс /Damon Wayans/, Стэйси Дэш /Stacey Dash/, Джо Сантос /Joe Santos/, Джон Диль /John Diehl/, Хэрри Ленникс /Harry Lennix/, Марлон Уэйнс /Marlon Wayans
Описание: В этом веселом и несколько сумбурном боевике молодой черный парень (Уайанс) вместе со своим братом зарабатывают на жизнь мелким мошенничеством. Полицейский, бывший партнер его покойного отца наставляет парня на путь истинный, но на работу в банковскую компанию он устраивается, чтобы охмурить симпатичную чернокожую сотрудницу. Он впутывается в опасную махинацию с кредитными карточками, в результате чего последние полчаса экранного времени заняты кровавыми разборками с мордобоем и стрельбой. И все это под музыку "рэп".



Качество: WEB-DLRip [исх. WEB-DL 720p]
Формат: AVI
Видео кодек: XviD
Аудио кодек: AC3
Видео: 720x400 (1.80:1), 23.976 fps, XviD build 50, 2133 kbps avg, 0.31 bit/pixel
Аудио : 48 kHz, AC3 Dolby Digital, 2/0 (L,R) ch, 192.00 kbps avg [Russian_AVO]
General
Complete name : E:\Мои раздачи\Mo Money_WEB-DLRip_RG_All_Films.avi
Format : AVI
Format/Info : Audio Video Interleave
File size : 1.46 GiB
Duration : 1h 29mn
Overall bit rate : 2 335 Kbps
Writing application : VirtualDubMod 1.6.0.0 SURROUND (build 2560/release)
Writing library : VirtualDubMod build 2560/release

Video
ID : 0
Format : MPEG-4 Visual
Format profile : Advanced Simple@L5
Format settings, BVOP : Yes
Format settings, QPel : No
Format settings, GMC : No warppoints
Format settings, Matrix : Custom
Codec ID : XVID
Codec ID/Hint : XviD
Duration : 1h 29mn
Bit rate : 2 134 Kbps
Width : 720 pixels
Height : 400 pixels
Display aspect ratio : 16:9
Frame rate : 23.976 fps
Color space : YUV
Chroma subsampling : 4:2:0
Bit depth : 8 bits
Scan type : Progressive
Compression mode : Lossy
Bits/(Pixel*Frame) : 0.309
Stream size : 1.34 GiB (91%)
Writing library : XviD 1.2.1 (UTC 2008-12-04)

Audio
ID : 1
Format : AC-3
Format/Info : Audio Coding 3
Mode extension : CM (complete main)
Codec ID : 2000
Duration : 1h 29mn
Bit rate mode : Constant
Bit rate : 192 Kbps
Channel(s) : 2 channels
Channel positions : Front: L R
Sampling rate : 48.0 KHz
Bit depth : 16 bits
Compression mode : Lossy
Stream size : 123 MiB (8%)
Alignment : Split accross interleaves
Interleave, duration : 42 ms (1.00 video frame)
Interleave, preload duration : 500 ms

 



Скачать Деньги.деньги.еще.деньги.Mo'.Money.(Питер.МакДоналд.Peter.MacDonald).[1992.г.комедия.мелодрама.криминал.WEB-DLRip].[AVO].(Михалев).torrent без регистрации
Золото ЗОЛОТАЯ РАЗДАЧА! СКАЧАННОЕ НЕ ЗАСЧИТЫВАЕТСЯ! Золото
Дата: Зарегистрирован   [ Тип: внутренний ] Как тут cкачать?
MAGNET ссылка
MAGNET ссылка


Скачать .torrent

15 KB

Статус: проверено DHT
Скачан: торрент - 148 раз, раздача полностью - 95 раз
Размер: 1,46 GB
Оценка:  5 (Голосов: 2)
Поблагодарили: 4
Поделиться ссылкой на эту раздачу с друзьями:
В контактеFacebookОдноклассникиTwitterLivejournalМой МирLiveinternet
 

 

leon030982

[] 

Обновлено!

Цитата:

Качество: WEB-DLRip az
 
Показать сообщения:    


Вы не можете начинать темы
Вы не можете отвечать на сообщения
Вы не можете редактировать свои сообщения
Вы не можете удалять свои сообщения
Вы не можете голосовать в опросах
Вы не можете прикреплять файлы к сообщениям
Вы можете скачивать файлы