Loading...
Error

Скачать Большой белый обман / The Great White Hype (Реджинальд Хадлин / Reginald Hudlin) [1996 г., Комедия, спорт, DVDRip] [MVO] (Премьер Видео Фильм) + [MVO] (ОРТ) торрент без регистрации

 
Статистика раздачи
Размер:  1,45 GB   |    Скачан:  111 раз
Сидов:  1  [  0 KB/s  ]  
 
Автор Сообщение

leon030982

[] 

Большой белый обман/ The Great White Hype


Год выпуска: 1996
Страна: США
Жанр: Комедия, спорт
Продолжительность: 01:26:55
Перевод 1: Профессиональный многоголосый (Премьер Видео Фильм)
Перевод 2: Профессиональный многоголосый (Первый канал)
Русские субтитры: нет
Режиссер: Реджинальд Хадлин / Reginald Hudlin
В ролях: Сэмюэл Л. Джексон, Джефф Голдблюм, Питер Берг, Корбин Бернсен, Джон Ловиц, Чич Марин, Джон Рис-Дэвис, Салли Ричардсон, Джейми Фокс, Роки Кэрролл, Альберт Холл, Сьюзэн Гибни, Майкл Джейс, Дуан Дэвис, Ламонт Джонсон, Дэймон Уайанс, Сэм Уиппл, Лиделл М. Чешир, Стью Нэхен, Ферди Пачеко, Аль Родриго, Фил Букман, Рени Гриффин, Берт Рэндольф Шуга, Уолтер Эддисон, Джонатан П. Хикс, Крэйг Моддерно, Тим Саки, Майкл Фэйрмэн, Брэд Блэйсделл, Джеймс Харди, Недра Волц, Рик Скарри, Элизабет ЛаРоу, Элисон Крофт, Кристал Л. Хаус, Ричард Стил, Энтони Джонсон, Брайан Сетцер, Метод Мэн, Ирв Доттен, Дизер Ди, Рено
Описание: Бокс - это всегда больше, чем просто спорт, чаще это бизнес и тотализатор. И Фред Салтан – менеджер чемпиона среди тяжеловесов - не новичок в этой игре. По его мнению все средства хороши, чтобы озолотиться. А значит, его подопечному - чемпиону Джеймсу Роперу недостаточно заполучить достойного соперника, ему необходим скандал. Фреду нужен Тэри Конклин - "белый" боксер, некогда одержавший громкую победу над Ропером. Правда, он давно отошел от большого спорта. Что ж, тем ярче будет победа. Но в этот раз безупречное чутье Салтана дало осечку: все с самого начала пошло не так...



Сэмпл - http://multi-up.com/860109
Качество: DVDRip
Формат: AVI
Видео кодек: XviD
Аудио кодек: MP3, AC3
Видео: 704x384 (1.83:1), 25 fps, XviD build 47 ~2047 kbps avg, 0.30 bit/pixel
Аудио 1: 48 kHz, MPEG Layer 3, 2 ch, ~128.00 kbps avg [ПВФ]
Аудио 2: 48 kHz, AC3 Dolby Digital, 2/0 (L,R) ch, ~192.00 kbps avg [ОРТ]
E:\INTERNET\Great White Hype.1996.2xMVO(ПВФ, ОРТ ).avi
General
Complete name : E:\INTERNET\Great White Hype.1996.2xMVO(ПВФ, ОРТ ).avi
Format : AVI
Format/Info : Audio Video Interleave
File size : 1.45 GiB
Duration : 1h 26mn
Overall bit rate : 2 383 Kbps
Writing application : VirtualDubMod 1.5.10.3 (build 2550/release)
Writing library : VirtualDubMod build 2550/release
Video #0
ID : 0
Format : MPEG-4 Visual
Format profile : Advanced Simple@L5
Format settings, BVOP : No
Format settings, QPel : Yes
Format settings, GMC : No warppoints
Format settings, Matrix : Default (MPEG)
Codec ID : XVID
Codec ID/Hint : XviD
Duration : 1h 26mn
Bit rate : 2 049 Kbps
Width : 704 pixels
Height : 384 pixels
Display aspect ratio : 1.85:1
Frame rate : 25.000 fps
Color space : YUV
Chroma subsampling : 4:2:0
Bit depth : 8 bits
Scan type : Progressive
Compression mode : Lossy
Bits/(Pixel*Frame) : 0.303
Stream size : 1.24 GiB (86%)
Writing library : XviD 1.2.0.dev47 (UTC 2006-11-01)
Audio #1
ID : 1
Format : MPEG Audio
Format version : Version 1
Format profile : Layer 3
Codec ID : 55
Codec ID/Hint : MP3
Duration : 1h 26mn
Bit rate mode : Constant
Bit rate : 128 Kbps
Channel(s) : 2 channels
Sampling rate : 48.0 KHz
Compression mode : Lossy
Stream size : 79.6 MiB (5%)
Alignment : Aligned on interleaves
Interleave, duration : 40 ms (1.00 video frame)
Interleave, preload duration : 504 ms
Audio #2
ID : 2
Format : AC-3
Format/Info : Audio Coding 3
Mode extension : CM (complete main)
Format settings, Endianness : Big
Codec ID : 2000
Duration : 1h 26mn
Bit rate mode : Constant
Bit rate : 192 Kbps
Channel(s) : 2 channels
Channel positions : Front: L R
Sampling rate : 48.0 KHz
Bit depth : 16 bits
Compression mode : Lossy
Stream size : 119 MiB (8%)
Alignment : Split accross interleaves
Interleave, duration : 40 ms (1.00 video frame)
Interleave, preload duration : 500 ms



Скачать Большой.белый.обман.The.Great.White.Hype.(Реджинальд.Хадлин.Reginald.Hudlin).[1996.г.Комедия.спорт.DVDRip].[MVO].(Премьер.Видео.Фильм).+.[MVO].(ОРТ).torrent без регистрации
Золото ЗОЛОТАЯ РАЗДАЧА! СКАЧАННОЕ НЕ ЗАСЧИТЫВАЕТСЯ! Золото
Дата: Зарегистрирован   [ Тип: внутренний ] Как тут cкачать?
MAGNET ссылка
MAGNET ссылка


Скачать .torrent

15 KB

Статус: проверено DHT
Скачан: торрент - 111 раз, раздача полностью - 32 раз
Размер: 1,45 GB
Оценка:  5 (Голосов: 2)
Поблагодарили: 2
Поделиться ссылкой на эту раздачу с друзьями:
В контактеFacebookОдноклассникиTwitterLivejournalМой МирLiveinternet
 

 
Показать сообщения:    


Вы не можете начинать темы
Вы не можете отвечать на сообщения
Вы не можете редактировать свои сообщения
Вы не можете удалять свои сообщения
Вы не можете голосовать в опросах
Вы не можете прикреплять файлы к сообщениям
Вы можете скачивать файлы