Loading...
Error

Скачать Город живых мертвецов / City of the Living Dead (Лучио Фульчи) [1980, ужасы, HDRip-AVC] [MVO] торрент без регистрации

 
Статистика раздачи
Размер:  2,18 GB   |    Скачан:  119 раз
Сидов:  1  [  0 KB/s  ]  
 
Автор Сообщение

Marsianka

[] 

Информация о фильме
Название: Город живых мертвецов
Оригинальное название: City of the Living Dead
Год выхода: 1980
Жанр: ужасы
Режиссер: Лучио Фульчи
В ролях: Кристофер Джордж, Катриона МакКолл, Карло Де Мейо, Антонелла Интерленьи, Джованни Ломбардо Радице, Даниела Дория, Фабрицио Жовин, Люка Венантини, Микеле Соави, Венантино Венантини, Энзо ДОсилио, Аделаида Асте, Лючано Росси, Роберт Сэмпсон, Джанет Агрен, Лучио Фульчи, Майкл Гонт, Перри Пирканен, Мартин Соррентино

О фильме:
Женщина-медиум во время спиритического сеанса увидела город Данвич, где вскоре должны разверзнутся врата ада. От ужаса она впала в летаргию и едва не была похоронена заживо. Уже из могилы ее откопал не то журналист, не то частный детектив, и они вдвоем отправились на поиски страшного города, чтобы предотвратить катастрофу. А в Данвиче тем временем оживали мертвецы, шел дождь из трупных червей, увидев призрак, девушка выблевала все внутренности, а одному пареньку просверлили голову на станке.

«Город живых мертвецов» (также известен под названием Зомби, повешенный на верёвке колокола) итальянский фильм ужасов 1980 года режиссёра Лючио Фульчи. Не рекомендуется просмотр детям и подросткам моложе 18 лет. Премьера фильма состоялась 11 августа 1980 года. На премьерном показе фильма с большинством зрителей случился шок, некоторые падали в обморок, некоторые выбегали из кинозала.
Страна: Италия
Студия: Dania Film, Medusa Distribuzione, National Cinematografica
Продолжительность: 01:32:46
Перевод: Профессиональный (многоголосый, закадровый)



Файл
Исходник: BDRip 720p
Контейнер: MKV
Кодек: AVC
Качество: HDRip-AVC
Видео: MPEG4/ISO/AVC, 720x384 (1.85:1), 2 977 Kbps, 23.976 fps, 0.449 Bits/(Pixel*Frame)
Звук: AC3, 48 kHz, 384 kbps, 2 ch
Субтитры: Отсутствуют

Семпл

General
Unique ID : 207018193903404893265509734705670978938 (0x9BBE40FD700FEB3EB5E85C4C23D8FD7A)
Complete name : G:City.of.the.Living.Dead.1980.HDRip.AVC.mkv
Format : Matroska
Format version : Version 2
File size : 2.18 GiB
Duration : 1h 32mn
Overall bit rate : 3 362 Kbps
Encoded date : UTC 2013-04-27 18:44:45
Writing application : mkvmerge v6.1.0 ('Old Devil') built on Mar 2 2013 14:32:37
Writing library : libebml v1.3.0 + libmatroska v1.4.0

Video
ID : 1
Format : AVC
Format/Info : Advanced Video Codec
Format profile : High@L4.1
Format settings, CABAC : Yes
Format settings, ReFrames : 16 frames
Codec ID : V_MPEG4/ISO/AVC
Duration : 1h 32mn
Bit rate : 2 977 Kbps
Width : 720 pixels
Height : 384 pixels
Display aspect ratio : 1.85:1
Frame rate mode : Constant
Frame rate : 23.976 fps
Color space : YUV
Chroma subsampling : 4:2:0
Bit depth : 8 bits
Scan type : Progressive
Bits/(Pixel*Frame) : 0.449
Stream size : 1.89 GiB (87%)
Writing library : x264 core 130 r2273 b3065e6
Encoding settings : cabac=1 / ref=16 / deblock=1:1:1 / analyse=0x3:0x133 / me=umh / subme=10 / psy=1 / psy_rd=1.00:0.00 / mixed_ref=1 / me_range=24 / chroma_me=1 / trellis=2 / 8x8dct=1 / cqm=0 / deadzone=21,11 / fast_pskip=1 / chroma_qp_offset=-2 / threads=6 / lookahead_threads=1 / sliced_threads=0 / nr=10 / decimate=1 / interlaced=0 / bluray_compat=0 / constrained_intra=0 / bframes=8 / b_pyramid=2 / b_adapt=2 / b_bias=0 / direct=3 / weightb=1 / open_gop=0 / weightp=2 / keyint=240 / keyint_min=23 / scenecut=40 / intra_refresh=0 / rc_lookahead=60 / rc=2pass / mbtree=1 / bitrate=2977 / ratetol=1.0 / qcomp=0.60 / qpmin=10 / qpmax=51 / qpstep=4 / cplxblur=20.0 / qblur=0.5 / vbv_maxrate=62500 / vbv_bufsize=78125 / nal_hrd=none / ip_ratio=1.40 / aq=1:1.00
Default : Yes
Forced : No

Audio
ID : 2
Format : AC-3
Format/Info : Audio Coding 3
Mode extension : CM (complete main)
Format settings, Endianness : Big
Codec ID : A_AC3
Duration : 1h 32mn
Bit rate mode : Constant
Bit rate : 384 Kbps
Channel(s) : 2 channels
Channel positions : Front: L R
Sampling rate : 48.0 KHz
Bit depth : 16 bits
Compression mode : Lossy
Stream size : 255 MiB (11%)
Language : Russian
Default : Yes
Forced : No
Автор рипа: _Bathory_



Скачать Город.живых.мертвецов.City.of.the.Living.Dead.(Лучио.Фульчи).[1980.ужасы.HDRip-AVC].[MVO].torrent без регистрации
Золото ЗОЛОТАЯ РАЗДАЧА! СКАЧАННОЕ НЕ ЗАСЧИТЫВАЕТСЯ! Золото
Дата: Зарегистрирован   [ Тип: внутренний ] Как тут cкачать?
MAGNET ссылка
MAGNET ссылка


Скачать .torrent

11 KB

Статус: проверено DHT
Скачан: торрент - 119 раз, раздача полностью - 11 раз
Размер: 2,18 GB
Оценка:  - (Голосов: 0)
Поблагодарили: 1
Поделиться ссылкой на эту раздачу с друзьями:
В контактеFacebookОдноклассникиTwitterLivejournalМой МирLiveinternet
 

 
Показать сообщения:    


Вы не можете начинать темы
Вы не можете отвечать на сообщения
Вы не можете редактировать свои сообщения
Вы не можете удалять свои сообщения
Вы не можете голосовать в опросах
Вы не можете прикреплять файлы к сообщениям
Вы можете скачивать файлы