Loading...
Error

Скачать Герой - одиночка / Last Man Standing (Уолтер Хилл) [1996, боевик, триллер, драма, криминал, вестерн, BDRip-AVC] [MVO] [Лицензия]+[AVO]+[Оригинал] торрент без регистрации

 
Статистика раздачи
Размер:  2,05 GB   |    Скачан:  4241 раз
Сидов:  1  [  0 KB/s  ]  
 
Автор Сообщение

Marsianka

[] 

Герой - одиночка / Last Man Standing

«If you lived in this town, you'd be dead by now.»

Производство: США
Жанр: боевик, триллер, драма, криминал, вестерн
Продолжительность: 01:41:06

Перевод: Профессиональный (многоголосый, закадровый) [Лицензия], Авторский (одноголосый, закадровый) [А.Гаврилов]
Оригинальный аудиопоток: английский
Субтитры: отсутствуют

Режиссер: Уолтер Хилл / Walter Hill

В ролях:
Брюс Уиллис, Брюс Дерн, Уильям Сэндерсон, Кристофер Уокен, Дэвид Патрик Келли, Карина Ломбард, Нед Эйзенберг, Александра Пауэрс, Майкл Империоли, Кен Дженкинс

Описание
Америка, времена «сухого закона». Бродяга и наемник Джон Смит по пути к мексиканской границе оказывается в маленьком техасском городке, где обосновались две банды бутлегеров ирландца Дойла и итальянца Строззи, ведущие между собой бесконечные кровавые разборки.
Примыкая по очереди то к одной, то к другой банде, разряжая свой пистолет то в одних гангстеров, то в других, Смит на самом деле преследует свои собственные цели




Качество: BDRip-AVC
Формат: MKV
Видео: 1056x448, 23.976fps, 2 264 Kbps, 0.200 bit/pixel
Аудио 1: AC3, 48.0 KHz, 6 ch, 256 Kbps - Mногоголосый
Аудио 2: AC3, 48.0 KHz, 2 ch, 192 Kbps - Гаврилов
Аудио 3: AC3, 48.0 KHz, 2 ch, 192 Kbps - Оригинал

Релиз от:
Format : Matroska
Format version : Version 2
File size : 2.05 GiB
Duration : 1h 41mn
Overall bit rate : 2 906 Kbps
Movie name : Last Man Standing 1996 - Release for zyyx (pirat.ca)
Encoded date : UTC 2012-06-03 12:08:29
Writing application : mkvmerge v4.9.1 ('Ich will') сборка от Jul 11 2011 23:53:15
Writing library : libebml v1.2.1 + libmatroska v1.1.1

Video
ID : 1
Format : AVC
Format/Info : Advanced Video Codec
Format profile : High@L4.1
Format settings, CABAC : Yes
Format settings, ReFrames : 11 frames
Codec ID : V_MPEG4/ISO/AVC
Duration : 1h 41mn
Bit rate : 2 264 Kbps
Width : 1 056 pixels
Height : 448 pixels
Display aspect ratio : 2.35:1
Frame rate : 23.976 fps
Color space : YUV
Chroma subsampling : 4:2:0
Bit depth : 8 bits
Scan type : Progressive
Bits/(Pixel*Frame) : 0.200
Stream size : 1.56 GiB (76%)
Writing library : x264 core 116 r2044 392e762
Encoding settings : cabac=1 / ref=11 / deblock=1:-2:-1 / analyse=0x3:0x133 / me=umh / subme=10 / psy=1 / psy_rd=1.00:0.20 / mixed_ref=1 / me_range=32 / chroma_me=1 / trellis=2 / 8x8dct=1 / cqm=0 / deadzone=21,11 / fast_pskip=1 / chroma_qp_offset=-3 / threads=6 / sliced_threads=0 / nr=0 / decimate=1 / interlaced=0 / bluray_compat=0 / constrained_intra=0 / bframes=8 / b_pyramid=2 / b_adapt=2 / b_bias=0 / direct=3 / weightb=1 / open_gop=0 / weightp=2 / keyint=250 / keyint_min=23 / scenecut=40 / intra_refresh=0 / rc_lookahead=60 / rc=2pass / mbtree=1 / bitrate=2264 / ratetol=1.0 / qcomp=0.60 / qpmin=0 / qpmax=69 / qpstep=4 / cplxblur=20.0 / qblur=0.5 / ip_ratio=1.40 / aq=1:1.00
Default : Yes
Forced : No

Audio #1
ID : 2
Format : AC-3
Format/Info : Audio Coding 3
Mode extension : CM (complete main)
Codec ID : A_AC3
Duration : 1h 41mn
Bit rate mode : Constant
Bit rate : 256 Kbps
Channel(s) : 6 channels
Channel positions : Front: L C R, Side: L R, LFE
Sampling rate : 48.0 KHz
Bit depth : 16 bits
Compression mode : Lossy
Stream size : 185 MiB (9%)
Default : Yes
Forced : No

Audio #2
ID : 3
Format : AC-3
Format/Info : Audio Coding 3
Mode extension : CM (complete main)
Codec ID : A_AC3
Duration : 1h 41mn
Bit rate mode : Constant
Bit rate : 192 Kbps
Channel(s) : 2 channels
Channel positions : Front: L R
Sampling rate : 48.0 KHz
Bit depth : 16 bits
Compression mode : Lossy
Stream size : 139 MiB (7%)
Default : No
Forced : No

Audio #3
ID : 4
Format : AC-3
Format/Info : Audio Coding 3
Mode extension : CM (complete main)
Codec ID : A_AC3
Duration : 1h 41mn
Bit rate mode : Constant
Bit rate : 192 Kbps
Channel(s) : 2 channels
Channel positions : Front: L C R, Side: L R, LFE
Sampling rate : 48.0 KHz
Bit depth : 16 bits
Compression mode : Lossy
Stream size : 139 MiB (7%)
Default : No
Forced : No



Скачать Герой.-.одиночка.Last.Man.Standing.(Уолтер.Хилл).[1996.боевик.триллер.драма.криминал.вестерн.BDRip-AVC].[MVO].[Лицензия]+[AVO]+[Оригинал].torrent без регистрации
Золото ЗОЛОТАЯ РАЗДАЧА! СКАЧАННОЕ НЕ ЗАСЧИТЫВАЕТСЯ! Золото
Дата: Зарегистрирован   [ Тип: внутренний ] Как тут cкачать?
MAGNET ссылка
MAGNET ссылка


Скачать .torrent

11 KB

Статус: проверено DHT
Скачан: торрент - 4241 раз, раздача полностью - 159 раз
Размер: 2,05 GB
Оценка:  5 (Голосов: 1)
Поблагодарили: 3
Поделиться ссылкой на эту раздачу с друзьями:
В контактеFacebookОдноклассникиTwitterLivejournalМой МирLiveinternet
 

 
Показать сообщения:    


Вы не можете начинать темы
Вы не можете отвечать на сообщения
Вы не можете редактировать свои сообщения
Вы не можете удалять свои сообщения
Вы не можете голосовать в опросах
Вы не можете прикреплять файлы к сообщениям
Вы можете скачивать файлы