Loading...
Error

Скачать Фантазм 2 / Phantasm II (Дон Коскарелли) [1988, ужасы, фантастика, боевик, триллер, HDRip] [MVO] торрент без регистрации

 
Статистика раздачи
Размер:  744 MB   |    Скачан:  5373 раза
Сидов:  1  [  0 KB/s  ]  
 
Автор Сообщение

Marsianka

[] 

Страна: США
Жанр: ужасы, фантастика, боевик, триллер
Год выпуска: 1988
Продолжительность: 01:36:38
Перевод: Профессиональный (многоголосый, закадровый)
Субтитры: нет

Режиссер: Дон Коскарелли / Don Coscarelli

В ролях: Джеймс ЛеГрос, Рэджи Бэннистер, Энгус Скримм, Паула Ирвин, Саманта Филлипс, Кеннет Тайгар, Рут С. Энджел, Марк Энтони Мейджор, Рубин Кушнер, Стэйси Трэвис, Дж. Патрик МакНамара, А. Майкл Болдуин

Описание: «Верзила» возвращается! Смертельным вихрем мчится он по Западу США, окруженный на сей раз целым легионом Серебряных Сфер и демонов, ставших еще быстрее и опаснее.
Только его противники, Майк и Реджи, способны сполна оценить угрозу, исходящую от зловещего мертвеца. Приняв в свою команду ясновидящую красавицу Лиз, друзья решают навеки покончить с «Верзилой». Если он не уничтожит их раньше...



Качество: HDRip
Контейнер: AVI
Видео кодек: XviD
Аудио кодек: MP3
Видео: 656x352 (1.85:1), 23.976 fps, XviD build 50 ~940 kbps avg, 0.17 bit/pixel
Аудио: 48 kHz, MPEG Layer 3, 2 ch, ~128.00 kbps avg
Раздача от:
Сэмпл
D:Phantasm.II.1988.HDRip [YTN] by dexter lex.avi
General
Complete name : D:Phantasm.II.1988.HDRip [YTN] by dexter lex.avi
Format : AVI
Format/Info : Audio Video Interleave
File size : 744 MiB
Duration : 1h 36mn
Overall bit rate : 1 077 Kbps
Writing application : VirtualDubMod 1.5.10.3 | www.virtualdub-fr.org || (build 2550/release)
Writing library : VirtualDubMod build 2550/release
Video #0
ID : 0
Format : MPEG-4 Visual
Format profile : Advanced Simple@L5
Format settings, BVOP : 1
Format settings, QPel : No
Format settings, GMC : No warppoints
Format settings, Matrix : Custom
Codec ID : XVID
Codec ID/Hint : XviD
Duration : 1h 36mn
Bit rate : 940 Kbps
Width : 656 pixels
Height : 352 pixels
Display aspect ratio : 1.85:1
Frame rate : 23.976 fps
Color space : YUV
Chroma subsampling : 4:2:0
Bit depth : 8 bits
Scan type : Progressive
Compression mode : Lossy
Bits/(Pixel*Frame) : 0.170
Stream size : 649 MiB (87%)
Writing library : XviD 1.2.1 (UTC 2008-12-04)
Audio #1
ID : 1
Format : MPEG Audio
Format version : Version 1
Format profile : Layer 3
Codec ID : 55
Codec ID/Hint : MP3
Duration : 1h 36mn
Bit rate mode : Constant
Bit rate : 128 Kbps
Channel(s) : 2 channels
Sampling rate : 48.0 KHz
Compression mode : Lossy
Stream size : 88.4 MiB (12%)
Alignment : Aligned on interleaves
Interleave, duration : 42 ms (1.00 video frame)
Interleave, preload duration : 504 ms
Writing library : LAME3.99r
Encoding settings : -m s -V 4 -q 2 -lowpass 17 -b 128



Скачать Фантазм.2.Phantasm.II.(Дон.Коскарелли).[1988.ужасы.фантастика.боевик.триллер.HDRip].[MVO].torrent без регистрации
Золото ЗОЛОТАЯ РАЗДАЧА! СКАЧАННОЕ НЕ ЗАСЧИТЫВАЕТСЯ! Золото
Дата: Зарегистрирован   [ Тип: внутренний ] Как тут cкачать?
MAGNET ссылка
MAGNET ссылка


Скачать .torrent

15 KB

Статус: проверено DHT
Скачан: торрент - 5373 раз, раздача полностью - 10 раз
Размер: 744 MB
Оценка:  5 (Голосов: 1)
Поблагодарили: 2
Поделиться ссылкой на эту раздачу с друзьями:
В контактеFacebookОдноклассникиTwitterLivejournalМой МирLiveinternet
 

 
Показать сообщения:    


Вы не можете начинать темы
Вы не можете отвечать на сообщения
Вы не можете редактировать свои сообщения
Вы не можете удалять свои сообщения
Вы не можете голосовать в опросах
Вы не можете прикреплять файлы к сообщениям
Вы можете скачивать файлы