Loading...
Error

Скачать Дракула - отец и сын / Dracula pere et fils (Эдуар Молинаро) [1976, ужасы, комедия, DVDRip] [MVO] торрент без регистрации

 
Статистика раздачи
Размер:  725 MB   |    Скачан:  109 раз
Сидов:  1  [  0 KB/s  ]  
 
Автор Сообщение

Marsianka

[] 

Информация о фильме
Название: Дракула - отец и сын
Оригинальное название: Dracula pere et fils
Год выхода: 1976
Жанр: ужасы, комедия
Режиссер: Эдуар Молинаро / Edouard Molinaro
В ролях: Кристофер Ли /Christopher Lee/, Бернар Менез /Bernard Menez/, Мари-Элен Брейя /Marie-Helene Breillat/, Катрин Брейя /Catherine Breillat/, Мустафа Дали /Mustapha Dali/, Бернар Алан /Bernard Alane/, Клод Жениа /Claude Genia/, Жан-Клод Дофен /Jean-Claude Dauphin/, Анна Гаэль /Anna Ga›l/, Жерар Жюньо /Gerard Jugnot/

О фильме:
Сыну легендарного графа Дракулы не совсем по душе образ жизни, который ведёт его отец, в том числе молодого человека отнюдь не радует необходимость питания человеческой кровью. Семейные неурядицы усиливаются, после того, как коммунисты изгоняют графа и его сына из Румынии в начале 1970-х годов. Сам глава семейства начинает сниматься в фильмах в фильмах ужасов в Великобритании, а его отпрыск оказывается во Франции. На премьере одной из картин отец и сын вновь встречаются, однако это приводит лишь в возобновлению давнего конфликта между ними. На этот раз причиной семейной неурядицы является женщина, в которую одновременно влюбляются старший и младший Дракула.



Страна: Франция
Студия: Gaumont
Продолжительность: 01:33:34
Перевод: Профессиональный (многоголосый, закадровый)

Файл
Кодек: XviD / MP3
Качество: DVDRip
Видео: XviD, 608x368 (1.652), 25.000 fps, 913 Kbps (0.163 bit/pixel)
Звук: MP3, 44.1 KHz, 2 ch, 160 Kbps, CBR
General
Complete name : F:Dracula.p�re.et.fils_[Rutor.org].avi
Format : AVI
Format/Info : Audio Video Interleave
File size : 725 MiB
Duration : 1h 33mn
Overall bit rate : 1 083 Kbps
Writing application : VirtualDubModRus 1.5.10.2 (build 2542/release)
Writing library : VirtualDubMod build 2542/release

Video
ID : 0
Format : MPEG-4 Visual
Format profile : Advanced Simple@L5
Format settings, BVOP : 2
Format settings, QPel : No
Format settings, GMC : No warppoints
Format settings, Matrix : Default (H.263)
Codec ID : XVID
Codec ID/Hint : XviD
Duration : 1h 33mn
Bit rate : 913 Kbps
Width : 608 pixels
Height : 368 pixels
Display aspect ratio : 1.652
Frame rate : 25.000 fps
Color space : YUV
Chroma subsampling : 4:2:0
Bit depth : 8 bits
Scan type : Progressive
Compression mode : Lossy
Bits/(Pixel*Frame) : 0.163
Stream size : 611 MiB (84%)
Writing library : XviD 1.1.2 (UTC 2006-11-01)

Audio
ID : 1
Format : MPEG Audio
Format version : Version 1
Format profile : Layer 3
Codec ID : 55
Codec ID/Hint : MP3
Duration : 1h 33mn
Bit rate mode : Constant
Bit rate : 160 Kbps
Channel(s) : 2 channels
Sampling rate : 44.1 KHz
Compression mode : Lossy
Stream size : 107 MiB (15%)
Alignment : Split accross interleaves
Interleave, duration : 40 ms (1.00 video frame)
Interleave, preload duration : 500 ms



Скачать Дракула.-.отец.и.сын.Dracula.pere.et.fils.(Эдуар.Молинаро).[1976.ужасы.комедия.DVDRip].[MVO].torrent без регистрации
Золото ЗОЛОТАЯ РАЗДАЧА! СКАЧАННОЕ НЕ ЗАСЧИТЫВАЕТСЯ! Золото
Дата: Зарегистрирован   [ Тип: внутренний ] Как тут cкачать?
MAGNET ссылка
MAGNET ссылка


Скачать .torrent

15 KB

Статус: проверено DHT
Скачан: торрент - 109 раз, раздача полностью - 1 раз
Размер: 725 MB
Оценка:  - (Голосов: 0)
Поблагодарили: 1
Поделиться ссылкой на эту раздачу с друзьями:
В контактеFacebookОдноклассникиTwitterLivejournalМой МирLiveinternet
 

 
Показать сообщения:    


Вы не можете начинать темы
Вы не можете отвечать на сообщения
Вы не можете редактировать свои сообщения
Вы не можете удалять свои сообщения
Вы не можете голосовать в опросах
Вы не можете прикреплять файлы к сообщениям
Вы можете скачивать файлы