Loading...
Error

Скачать Опасное погружение / Crash Dive (Арчи Майо) [1943, боевик, мелодрама, приключения, военный, DVDRip] [MVO] торрент без регистрации

 
Статистика раздачи
Размер:  772 MB   |    Скачан:  331 раз
Сидов:  1  [  0 KB/s  ]  
 
Автор Сообщение

МихаНЕзатор

[] 

Опасное погружение / Срочное погружение / Crash Dive


Страна: США
Жанр: военная драма, приключения
Год выпуска: 1943
Продолжительность: 01:46:00
Перевод: профессиональный (многоголосый закадровый)
Cубтитры: нет
Оригинальная аудиодорожка: английская
Режиссер: Арчи Мэйо / Archie Mayo

В ролях: Тайрон Пауэр, Энн Бэкстер, Дэна Эндрюс, Джеймс Глисон, Мэй Уитти, Гарри Морган, Бен Картер, Фред Олдрич, Стэнли Эндрюс, Джон Арчер

Описание: Лейтенант Уорд Стюарт — капитан торпедного катера, возвращается на сушу после удачно проведенной операции по уничтожению вражеской подлодки. В этот же день героя вызывают в штаб, где его дядюшка Адмирал Стерт дает ему ответственное задание — стать старшим помощником капитана на одной из подводных лодок ВМС США.
Капитан лодки Дью Коннорс обрадован приходом на борт нового старпома, но он и не догадывается, что его новый друг, как и он, влюблен в Джин Хьюлетт. Парням предстоит нелегкое плавание во время которого они вступят в бой с фашистским противолодочным кораблем и, проявив, незаурядный героизм разгромят немецкую военную базу…

За исходный DVD - - Большое Спасибо Simpun
За русскую дорожку Спасибо keen995



Качество видео: DVDRip
Формат видео: AVI
Видео: 512x384 (1.33:1), 23.976 fps, XviD build 65 ~816 kbps avg, 0.17 bit/pixel
Аудио 1: 48 kHz, MPEG Layer 3, 2 ch, ~96.00 kbps avg (русский профессиональный многоголосый закадровый перевод)
Аудио 2: 48 kHz, MPEG Layer 3, 2 ch, ~96.00 kbps avg (английская оригинальная звуковая дорожка, лежит отдельно)

(см. "Программы для работы с контейнерами" - > "VirtualDub" или "AVI-Mux")

АНОНСЫ ПОПУЛЯРНЫХ РАЗДАЧ


Торрент обновлён, улучшен видеоряд!
AVI-файл:
General
Complete name : ... \Crash Dive 1943 700MB\Crash Dive.avi
Format : AVI
Format/Info : Audio Video Interleave
File size : 699 MiB
Duration : 1h 46mn
Overall bit rate : 922 Kbps
Writing application : VirtualDubMod 1.5.10.3 | www.virtualdub-fr.org || (build 2550/release)
Writing library : VirtualDubMod build 2550/release
Video
ID : 0
Format : MPEG-4 Visual
Format profile : Advanced Simple@L5
Format settings, BVOP : 2
Format settings, QPel : No
Format settings, GMC : No warppoints
Format settings, Matrix : Default (H.263)
Codec ID : DX50
Codec ID/Hint : DivX 5
Duration : 1h 46mn
Bit rate : 817 Kbps
Width : 512 pixels
Height : 384 pixels
Display aspect ratio : 4:3
Frame rate : 23.976 fps
Color space : YUV
Chroma subsampling : 4:2:0
Bit depth : 8 bits
Scan type : Progressive
Compression mode : Lossy
Bits/(Pixel*Frame) : 0.173
Stream size : 619 MiB (89%)
Writing library : XviD 65
Audio
ID : 1
Format : MPEG Audio
Format version : Version 1
Format profile : Layer 3
Codec ID : 55
Codec ID/Hint : MP3
Duration : 1h 46mn
Bit rate mode : Constant
Bit rate : 96.0 Kbps
Channel(s) : 2 channels
Sampling rate : 48.0 KHz
Compression mode : Lossy
Stream size : 72.8 MiB (10%)
Alignment : Aligned on interleaves
Interleave, duration : 42 ms (1.00 video frame)
Interleave, preload duration : 504 ms
Writing library : LAME3.99r
Encoding settings : -m s -V 4 -q 2 -lowpass 15.1 -b 96
английская оригинальная дорожка, лежит отдельно:
General
Complete name : ... \Crash Dive 1943 700MB\Crash Dive.ENG.mp3
Format : MPEG Audio
File size : 72.8 MiB
Duration : 1h 46mn
Overall bit rate mode : Constant
Overall bit rate : 96.0 Kbps
Writing library : LAME3.99r
Audio
Format : MPEG Audio
Format version : Version 1
Format profile : Layer 3
Duration : 1h 46mn
Bit rate mode : Constant
Bit rate : 96.0 Kbps
Channel(s) : 2 channels
Sampling rate : 48.0 KHz
Compression mode : Lossy
Stream size : 72.8 MiB (100%)
Writing library : LAME3.99r
Encoding settings : -m s -V 4 -q 2 -lowpass 15.1 -b 96



Скачать Опасное.погружение.Crash.Dive.(Арчи.Майо).[1943.боевик.мелодрама.приключения.военный.DVDRip].[MVO].torrent без регистрации
Золото ЗОЛОТАЯ РАЗДАЧА! СКАЧАННОЕ НЕ ЗАСЧИТЫВАЕТСЯ! Золото
Дата: Зарегистрирован   [ Тип: внутренний ] Как тут cкачать?
MAGNET ссылка
MAGNET ссылка


Скачать .torrent

16 KB

Статус: проверено DHT
Скачан: торрент - 331 раз, раздача полностью - 0 раз
Размер: 772 MB
Оценка:  - (Голосов: 0)
Поблагодарили: 1
Поделиться ссылкой на эту раздачу с друзьями:
В контактеFacebookОдноклассникиTwitterLivejournalМой МирLiveinternet
 

 
Показать сообщения:    


Вы не можете начинать темы
Вы не можете отвечать на сообщения
Вы не можете редактировать свои сообщения
Вы не можете удалять свои сообщения
Вы не можете голосовать в опросах
Вы не можете прикреплять файлы к сообщениям
Вы можете скачивать файлы