Loading...
Error

Скачать Погоня / The Chase (Адам Рифкин / Adam Rifkin) [1994, комедия, криминал, HDTVRip] [AVO] (Михалев) + Original (Eng) торрент без регистрации

 
Статистика раздачи
Размер:  1,44 GB   |    Скачан:  127 раз

Полного источника не было: 23 минуты

 
Автор Сообщение

leon030982

[] 

Погоня / The Chase

Год выпуска: 1994
Страна: США
Жанр: комедия, криминал
Продолжительность: 01:28:11
Перевод: Авторский (одноголосый закадровый)[Алексей Михалев]
Cубтитры: нет
Оригинальная аудиодорожка: английский

Режиссер: Адам Рифкин / Adam Rifkin

В ролях: Чарли Шин / Charlie Sheen, Кристи Свэнсон / Kristy Swanson, Рэй Уайз / Ray Wise, Кэри Элвес / Cary Elwes, Джош Мостел / Josh Mostel, Рокки Кэрролл / Rocky Carroll, Генри Роллинз / Henry Rollins, Уэйн Грэйс / Wayne Grace

Описание: Джек Хэммонд (Чарли Шин) скрывается от полиции и угоняет автомобиль. Но у магазина, куда он заехал за сигаретами, он попадается на глаза патрульным. Джек берёт очаровательную заложницу Натали (Кристи Свэнсон) и на её красном БМВ устремляется к границе с Мексикой. Разумеется Натали оказывается дочерью мультимиллионера Далтона Фосса (Рэй Вайз). За беглецами гонится полиция штата, радио и телевидение. В пути происходит невероятное количество смешных происшествий. А Джек с Натали по ходу погони успевают подружиться и полюбить друг друга.



Качество видео: HDTVRip
Формат видео: AVI
Видео: 704x400 (1.76:1), 23.976 fps, XviD build 64 ~1944 kbps avg, 0.29 bit/pixel
Аудио#1: 48 kHz, AC3 Dolby Digital, 2/0 (L,R) ch, ~192.00 kbps avg
Аудио#2: 48 kHz, AC3 Dolby Digital, 2/0 (L,R) ch, ~192.00 kbps avg
Общее
Полное имя : D:\Мои документы\Кинофильмы\Кино\Мои раздачи (незаболваненные)\The Chase (Mihalev, Eng) (HDTVRip) by A.P..avi
Формат : AVI
Формат/Информация : Audio Video Interleave
Размер файла : 1,44 Гбайт
Продолжительность : 1 ч. 28 м.
Общий поток : 2344 Кбит/сек
Программа кодирования : VirtualDubMod 1.5.10.3 | www.virtualdub-fr.org || (build 2550/release)
Библиотека кодирования : VirtualDubMod build 2550/release
Видео
Идентификатор : 0
Формат : MPEG-4 Visual
Профиль формата : Advanced Simple@L5
Параметр BVOP формата : 1
Параметр QPel формата : Нет
Параметр GMC формата : Без точки перехода
Параметр матрицы формата : Выборочная
Идентификатор кодека : XVID
Идентификатор кодека/Подсказка : XviD
Продолжительность : 1 ч. 28 м.
Битрейт : 1945 Кбит/сек
Ширина : 704 пикселя
Высота : 400 пикселей
Соотношение сторон : 16:9
Частота кадров : 23,976 кадра/сек
Цветовое пространство : YUV
Субдискретизация насыщенности : 4:2:0
Битовая глубина : 8 бит
Тип развёртки : Прогрессивная
Метод сжатия : С потерями
Бит/(Пиксели*Кадры) : 0.288
Размер потока : 1,20 Гбайт (83%)
Библиотека кодирования : XviD 64
Аудио #1
Идентификатор : 1
Формат : AC-3
Формат/Информация : Audio Coding 3
Расширение режима : CM (complete main)
Идентификатор кодека : 2000
Продолжительность : 1 ч. 28 м.
Вид битрейта : Постоянный
Битрейт : 192 Кбит/сек
Каналы : 2 канала
Расположение каналов : Front: L R
Частота : 48,0 КГц
Битовая глубина : 16 бит
Метод сжатия : С потерями
Задержка видео : 170 мс.
Размер потока : 121 Мбайт (8%)
Выравнивание : Разделение по промежуткам
Продолжительность промежутка : 42 мс. (1,00 видеокадр)
Время предзагрузки промежутка : 500 мс.
Аудио #2
Идентификатор : 2
Формат : AC-3
Формат/Информация : Audio Coding 3
Расширение режима : CM (complete main)
Идентификатор кодека : 2000
Продолжительность : 1 ч. 28 м.
Вид битрейта : Постоянный
Битрейт : 192 Кбит/сек
Каналы : 2 канала
Расположение каналов : Front: L R
Частота : 48,0 КГц
Битовая глубина : 16 бит
Метод сжатия : С потерями
Размер потока : 121 Мбайт (8%)
Выравнивание : Разделение по промежуткам
Продолжительность промежутка : 42 мс. (1,00 видеокадр)
Время предзагрузки промежутка : 500 мс.



Скачать Погоня.The.Chase.(Адам.Рифкин.Adam.Rifkin).[1994.комедия.криминал.HDTVRip].[AVO].(Михалев).+.Original.(Eng).torrent без регистрации
Золото ЗОЛОТАЯ РАЗДАЧА! СКАЧАННОЕ НЕ ЗАСЧИТЫВАЕТСЯ! Золото
Дата: Зарегистрирован   [ Тип: внутренний ] Как тут cкачать?
MAGNET ссылка
MAGNET ссылка


Скачать .torrent

15 KB

Статус: проверено DHT
Скачан: торрент - 127 раз, раздача полностью - 4 раз
Размер: 1,44 GB
Оценка:  5 (Голосов: 1)
Поблагодарили: 1
Поделиться ссылкой на эту раздачу с друзьями:
В контактеFacebookОдноклассникиTwitterLivejournalМой МирLiveinternet
 

 
Показать сообщения:    


Вы не можете начинать темы
Вы не можете отвечать на сообщения
Вы не можете редактировать свои сообщения
Вы не можете удалять свои сообщения
Вы не можете голосовать в опросах
Вы не можете прикреплять файлы к сообщениям
Вы можете скачивать файлы